Ссылка на приватное зеркало нашего сайта всего за 1$. Внимание количество ограничено!!!

2 сезон

iTunes

1 сезон

1

2 сезон

2 сезон

iTunes

1 сезон

RePack

30

Новинка

ВАЖНО

ИГРА 18+

pack

RePack

MK11
pack

Забери бонус

RePack

jed

!!Акция!!

Alien_Rage

RePack

fifa19

RePack

Assassins Creed: Odyssey

RePack

NEED FOR SPEED™ PAYBACK

4 сезон

9 сезон

Бесстыжие 9 сезон

Все сериалы

все сериалы на PB.wtf

RePack

FAR CRY 5
  

Чёрное зеркало / Black Mirror / Сезон: 5 / Серии: 1-3 из 3 (Оуэн Харрис, Джеймс Хоус, Анне Севитски) [2019, фантастика, триллер, драма, WEB-DLRip] MVO [TVShows] pb.wtf

Чёрное зеркало через торрент pb.wtf

Размер: 3.87 GB | Добавлен: 1 год 5 мес. назад | Торрент скачан:91 раз
Скачать  

10-06-2019 05:09 Чёрное зеркало Скачать торрент  

Чёрное зеркало / Black Mirror Год выпуска: 2019
Страна: Великобритания
Жанр: фантастика, триллер, драма
Продолжительность: ~ 01:02:00
Перевод: Профессиональный (многоголосый закадровый) | TVShows
Субтитры: Английские
Режиссёр: Оуэн Харрис, Джеймс Хоус, Анне Севитски


В ролях:

Энтони Маки, Яхья Абдул-Матин II, Николь Бехари, Пом Клементьефф, Луди Лин, Эндрю Скотт, Демсон Идрис, Тофер Грейс, Майли Сайрус, Ангури Райс, Мэдисон Дэвенпорт

Описание:

За последние десять лет технологии всесторонне изменили нашу жизнь, прежде чем мы успели опомниться и усомниться в них. В каждом доме, на каждом столе, на каждой ладони — плазменный телевизор, монитор компьютера, дисплей смартфона — чёрное зеркало нашего существования в двадцать первом веке. Наша связь с реальностью меняется. Мы возложили на алтарь Google и Apple и поклоняемся им. Facebook-алгоритмы знают о нас больше, чем наши собственные родители. У нас есть доступ ко всей информации в мире, но в голове хватает места лишь для того, чтобы воспринять 140 символов из сообщения в Twitter. В «Чёрном зеркале» отображается всеобщее беспокойство за наш современный мир.

rating

Качество: WEB-DLRip
Формат: AVI
Видео кодек: XviD

Видео: 704x352 (2,000) (Первая серия), 704x320 (2,2:1), 25,000 кадров/сек, 2000 Кбит/сек
Аудио Rus: 48 kHz, AC3 Dolby Digital, 3/2 (L,C,R,l,r) + LFE ch, ~384 kbps
Аудио Eng: 48 kHz, AC3 Dolby Digital, 3/2 (L,C,R,l,r) + LFE ch, ~384 kbps


Реклама отсутствует
Общее
Полное имя                               : D:\Black Mirror Season 5 WEB-DLRip 400p\Black.Mirror.s05e01.WEB-DLRip.RGzsRutracker.avi
Формат                                   : AVI
Формат/Информация                        : Audio Video Interleave
Размер файла                             : 1,20 Гбайт
Продолжительность                        : 1 ч. 1 м.
Общий поток                              : 2782 Кбит/сек
Программа кодирования                    : VirtualDubMod 1.5.10.3 | www.virtualdub-fr.org || (build 2550/release)
Библиотека кодирования                   : VirtualDubMod build 2550/release

Видео
Идентификатор                            : 0
Формат                                   : MPEG-4 Visual
Профиль формата                          : Advanced Simple@L5
Настройки формата                        : BVOP1 / Custom Matrix
Параметр BVOP формата                    : 1
Параметр QPel формата                    : Нет
Параметр GMC формата                     : Без точки перехода
Параметр матрицы формата                 : Выборочная
Идентификатор кодека                     : XVID
Идентификатор кодека/Подсказка           : XviD
Продолжительность                        : 1 ч. 1 м.
Битрейт                                  : 2000 Кбит/сек
Ширина                                   : 704 пикселя
Высота                                   : 352 пикселя
Соотношение сторон                       : 2,000
Частота кадров                           : 25,000 кадров/сек
Цветовое пространство                    : YUV
Субдискретизация насыщенности            : 4:2:0
Битовая глубина                          : 8 бит
Тип развёртки                            : Прогрессивная
Метод сжатия                             : С потерями
Бит/(Пиксели*Кадры)                      : 0.323
Размер потока                            : 885 Мбайт (72%)
Библиотека кодирования                   : XviD 73

Аудио #1
Идентификатор                            : 1
Формат                                   : AC-3
Формат/Информация                        : Audio Coding 3
Идентификатор кодека                     : 2000
Продолжительность                        : 1 ч. 1 м.
Вид битрейта                             : Постоянный
Битрейт                                  : 384 Кбит/сек
Каналы                                   : 6 каналов
Расположение каналов                     : Front: L C R, Side: L R, LFE
Частота                                  : 48,0 КГц
Частота кадров                           : 31,250 кадров/сек (1536 SPF)
Битовая глубина                          : 16 бит
Метод сжатия                             : С потерями
Размер потока                            : 170 Мбайт (14%)
Выравнивание                             : Разделение по промежуткам
Продолжительность промежутка             : 40  мс. (1,00 видеокадр)
Время предзагрузки промежутка            : 500  мс.
ServiceKind/String                       : Complete Main

Аудио #2
Идентификатор                            : 2
Формат                                   : AC-3
Формат/Информация                        : Audio Coding 3
Идентификатор кодека                     : 2000
Продолжительность                        : 1 ч. 1 м.
Вид битрейта                             : Постоянный
Битрейт                                  : 384 Кбит/сек
Каналы                                   : 6 каналов
Расположение каналов                     : Front: L C R, Side: L R, LFE
Частота                                  : 48,0 КГц
Частота кадров                           : 31,250 кадров/сек (1536 SPF)
Битовая глубина                          : 16 бит
Метод сжатия                             : С потерями
Размер потока                            : 170 Мбайт (14%)
Выравнивание                             : Разделение по промежуткам
Продолжительность промежутка             : 40  мс. (1,00 видеокадр)
Время предзагрузки промежутка            : 500  мс.
ServiceKind/String                       : Complete Main
скриншот  скриншот  скриншот  

скриншот  скриншот  скриншот  
pb.wtf



Скачать Чёрное зеркало через торрент https://i106.fastpic.ru/big/2019/0609/e6/d7c0e828adb6dff8aba0c8bc31ca4fe6.jpg Скачать фильм Чёрное зеркало через торрент бесплантно в хорошем качестве Описание:За последние десять лет технологии всесторонне изменили нашу жизнь, прежде чем мы успели опомниться и усомниться в них. В каждом ... 10 10 3
Торрент: Зарегистрирован [2019-06-10 05:09] · скачан: 91 раз
Статус: √ проверено
Размер: 3.87 GB
Как cкачать? Как скачать Чёрное зеркало через торрент | qTorrent

% Раздел Тема Автор DL S | L
Зарубежные сериалы [ 76.54 GB ] Черное зеркало / Black Mirror / Сезон: 5 / Серии: 1-3 из 3 [2019 UHD WEBRip 2160p] [SDR] DVO [Кубик в кубе] sheker187 Скачать
1 | 0
Зарубежные сериалы [ 27.52 GB ] Черное зеркало / Black Mirror / Сезон: 5 / Серии: 1-3 из 3 [2019 UHD WEBRip 2160p] DVO [Кубик в кубе] sheker187 Скачать
2 | 0
Зарубежные сериалы [ 21.65 GB ] Чёрное зеркало / Black Mirror / Сезон: 5 / Серии: 1-3 из 3 [2019 WEBRip 1080p] MVO [LostFilm] bober100 Скачать
2 | 0
Зарубежные сериалы [ 4.41 GB ] Чёрное зеркало / Black Mirror / Сезон: 5 / Серии: 1-3 из 3 [2019 WEBRip 720p] MVO [LostFilm] bober100 Скачать
1 | 0
Зарубежные сериалы [ 10.76 GB ] Черное зеркало / Black Mirror / Сезон: 5 / Серии: 1-3 из 3 [2019 WEB-DL 720p] DVO [Кубик в кубе] bober100 Скачать
2 | 0
Зарубежные сериалы [ 5.16 GB ] Черное зеркало / Black Mirror / Сезон: 5 / Серии: 1-3 из 3 [2019 WEB-DL 720p] MVO [AMS] bober100 Скачать
1 | 0
Зарубежные сериалы [ 22.01 GB ] Чёрное зеркало / Black Mirror / Сезон: 5 / Серии: 1-3 из 3 [2019 WEBRip 1080p] [DVO] killermax2013 Скачать
1 | 0

28-11-2019 20:33  

Отключить всю рекламу на сайте

    Дорогой пользователь! Огромная просьба, поблагодарите релизера, оцените раздачу и оставьте свои комментарий, если Вы скачали Чёрное зеркало через торрент бесплатно! Внесите свою лепту в развитие PiratBit!
    Комментировать посты могут только пользователи прошедшие не сложную регистрацию
    Показать сообщения:    

    Чёрное зеркало через торрент
    Скачать бесплатно Чёрное зеркало
    Чёрное зеркало скачать торрент
    Чёрное зеркало смотреть онлайн
    Cкачать фильм Чёрное зеркало бесплатно
    Чёрное зеркало скачать торрент в хорошем качестве
    Чёрное зеркало смотреть онлайн бесплатно в хорошем качестве


    Вы не можете начинать темы
    Вы не можете отвечать на сообщения
    Вы не можете редактировать свои сообщения
    Вы не можете удалять свои сообщения
    Вы не можете голосовать в опросах
    Вы не можете прикреплять файлы к сообщениям
    Вы можете скачивать файлы