Мега распродажа FORZA HORIZON 4 ULTIMATE+ВСЕ DLC+ОНЛАЙН всего за 499р. 349 руб. (супер цена). Внимание количество ограничено!!!

Лицензия

30

iTunes

мы

iTunes

1

1 сезон

Чернобыль

1 сезон

Ральф против интернета

MVO

Покемон. Детектив Пикачу

8 сезон

Игра престолов

iTunes

1+1

ИГРА 18+

pack

ВАЖНО

!!Акция!!

Alien_RageХит недели

RePack

Resident Evil 21
pack

RePack

Metro:Exodus

!!Акция!!

Alien_Rage

RePack

fifa19

RePack

Assassins Creed: Odyssey

RePack

NEED FOR SPEED™ PAYBACK

3 сезон

9 сезон

Бесстыжие 9 сезон

Все сериалы

все сериалы на PB.wtf

RePack

FAR CRY 5
Ребята, катастрофически не хватает 2730р. для оплаты серверов за МАЙ (всвязи с блокировками трафик упал в 3 раза), 1-2р., выручайте.
  

Годы / Years and Years / Сезон: 1 / Серии: 1-5 из 6 (Джонатан Литер, Анна Луис Гордон, Саймон Селлан Джоунс) [2019, драма, WEBRip 1080p] MVO [TVShows] pb.wtf

Годы через торрент pb.wtf

Раздают: 1 [ 0 KB/s ]
Размер: 11.38 GB | Добавлен: 6 д. назад | Торрент скачан:0 раз
Скачать  

10-06-2019 08:14 Годы Скачать торрент  

Годы / Years and Years Производство: Великобритания,
Год выпуска: 2019
Жанр: драма
Продолжительность: ~ 00:50:00 серия
Перевод: Профессиональный (многоголосый закадровый) | TVShows
Оригинальная аудиодорожка: Английская
Субтитры: Rus, Eng (SDH)

Режиссер: Джонатан Литер, Анна Луис Гордон, Саймон Селлан Джоунс

В ролях:

Энн Рейд, Эмма Томпсон, Рут Маделей, Шэрон Дункан-Брюстер, Макс Болдри, Джейд Аллейн, Джессика Хайнс, Рассел Тови, Рори Киннер, Т’Ниа Миллер

Описание:

История об эпатажной Вивьен Рук, которая превращается в скандальную политическую фигуру. Она — политик новой формации. Шоувумен, бунтарка, шарлатанка. Великобритания переживает сложный период дестабилизации, а ее приход к власти еще больше раскалывает нацию и не сулит никакого светлого будущего. Действие начинается в 2019 году и разворачивается в течение следующих 15 турбулентных лет.



Качество: WEBRip 1080p
Формат: MKV

Видео: AVC, 1920 x 960 (1.778), 25.000 fps, ~5178 kbps
Аудио Rus: AC-3, 48 kHz, 2 ch, 384 kbps |TVShows|
Аудио Eng: AC-3, 48 kHz, 2 ch, 192 kbps |Original|
General
Unique ID : 107610722932470798349397548680021742854 (0x50F51244DD2B56695F65A450EDB31506)
Complete name : C:\UsersDesktop\Years.and.Years.S01.1080p.TVShows\Years.and.Years.S01E01.1080p.TVShows.mkv
Format : Matroska
Format version : Version 4 / Version 2
File size : 2.25 GiB
Duration : 55 min 54 s
Overall bit rate : 5 756 kb/s
Movie name : Years and Years S01E01
Encoded date : UTC 2019-06-07 06:46:12
Writing application : mkvmerge v33.1.0 ('Primrose') 64-bit
Writing library : libebml v1.3.7 + libmatroska v1.5.0

Video
ID : 1
Format : AVC
Format/Info : Advanced Video Codec
Format profile : High@L4.1
Format settings : CABAC / 4 Ref Frames
Format settings, CABAC : Yes
Format settings, ReFrames : 4 frames
Codec ID : V_MPEG4/ISO/AVC
Duration : 55 min 54 s
Bit rate : 5 178 kb/s
Width : 1 920 pixels
Height : 960 pixels
Display aspect ratio : 2.000
Frame rate mode : Constant
Frame rate : 25.000 FPS
Color space : YUV
Chroma subsampling : 4:2:0
Bit depth : 8 bits
Scan type : Progressive
Bits/(Pixel*Frame) : 0.112
Stream size : 2.02 GiB (90%)
Writing library : x264 core 157 r2969 d4099dd
Encoding settings : cabac=1 / ref=4 / deblock=1:0:0 / analyse=0x3:0x113 / me=hex / subme=8 / psy=1 / psy_rd=1.00:0.00 / mixed_ref=1 / me_range=16 / chroma_me=1 / trellis=2 / 8x8dct=1 / cqm=0 / deadzone=21,11 / fast_pskip=1 / chroma_qp_offset=-2 / threads=12 / lookahead_threads=2 / sliced_threads=0 / nr=0 / decimate=1 / interlaced=0 / bluray_compat=0 / constrained_intra=0 / bframes=3 / b_pyramid=2 / b_adapt=1 / b_bias=0 / direct=3 / weightb=1 / open_gop=0 / weightp=2 / keyint=250 / keyint_min=25 / scenecut=40 / intra_refresh=0 / rc_lookahead=50 / rc=crf / mbtree=1 / crf=17.0 / qcomp=0.60 / qpmin=0 / qpmax=69 / qpstep=4 / ip_ratio=1.40 / aq=1:1.00
Language : English
Default : Yes
Forced : No
Color range : Limited
Matrix coefficients : BT.709

Audio #1
ID : 2
Format : AC-3
Format/Info : Audio Coding 3
Codec ID : A_AC3
Duration : 55 min 54 s
Bit rate mode : Constant
Bit rate : 384 kb/s
Channel(s) : 2 channels
Channel positions : Front: L R
Sampling rate : 48.0 kHz
Frame rate : 31.250 FPS (1536 SPF)
Bit depth : 16 bits
Compression mode : Lossy
Stream size : 154 MiB (7%)
Title : TVShows
Language : Russian
Service kind : Complete Main
Default : Yes
Forced : Yes

Audio #2
ID : 3
Format : AC-3
Format/Info : Audio Coding 3
Codec ID : A_AC3
Duration : 55 min 54 s
Bit rate mode : Constant
Bit rate : 192 kb/s
Channel(s) : 2 channels
Channel positions : Front: L R
Sampling rate : 48.0 kHz
Frame rate : 31.250 FPS (1536 SPF)
Bit depth : 16 bits
Compression mode : Lossy
Stream size : 76.8 MiB (3%)
Title : Original
Language : English
Service kind : Complete Main
Default : No
Forced : No[/pre]
скриншот   скриншот   скриншот   скриншот   скриншот  
Когда раздача ведётся путём добавления новых серий, при каждом добавлении создётся новый торрент. Чтобы начать докачку новой серии, пользователям необходимо сделать следующее:
(1) остановить скачивание,
(2) удалить старый торрент у себя из клиента (старые серии удалять не надо),
(3) скачать новый торрент и запустить его у себя в клиенте вместо старого, при этом указать клиенту путь в старую папку, куда и должно происходить скачивание новых серий.
Ваш клиент при этом должен произвести хеширование (проверку) старой папки (если не производит сам - помогите ему сделать это), и будет докачивать только те серии, которых у вас ещё нет. Старые серии при этом не удаляются, а продолжают раздаваться!
Eсли вы уже удалили старые серии, то предотвратить повторную закачку старых серий можно, отжав галочку в соответсвующих местах при запуске нового торрента. По возможности, желательно не удалять старые серии как можно дольше, чтобы релизёр не столько продолжал раздавать старые серии, а смог сконцентрироваться на новых.
pb.wtf



Скачать Годы через торрент https://i106.fastpic.ru/big/2019/0610/43/b7fac6af33a8a02cf38e020c37032543.jpg Скачать фильм Годы через торрент бесплантно в хорошем качестве Описание:История об эпатажной Вивьен Рук, которая превращается в скандальную политическую фигуру. Она — политик новой формации. Шоувумен, ... 5.5 10 4
Торрент: Зарегистрирован [2019-06-20 01:59] · скачан: 0 раз
Статус: √ проверено
Размер: 11.38 GB
Как cкачать? Как скачать Годы через торрент | qTorrent


>> Регистрируемся здесь <<






Отзывы и комментарии о схеме читаем и пишем здесь: ---> Отзывы и комментарии о схеме

Новые благодарочки в телеграм довольных пользователей:
скриншот   скриншот   скриншот   скриншот   скриншот
    Дорогой пользователь! Огромная просьба, поблагодарите релизера, оцените раздачу и оставьте свои комментарий, если Вы скачали Годы через торрент бесплатно! Внесите свою лепту в развитие PiratBit!
    Комментировать посты могут только пользователи прошедшие не сложную регистрацию
    Показать сообщения:    

    Годы через торрент
    Скачать бесплатно Годы
    Годы скачать торрент
    Годы смотреть онлайн
    Cкачать фильм Годы бесплатно
    Годы скачать торрент в хорошем качестве
    Годы смотреть онлайн бесплатно в хорошем качестве


    Вы не можете начинать темы
    Вы не можете отвечать на сообщения
    Вы не можете редактировать свои сообщения
    Вы не можете удалять свои сообщения
    Вы не можете голосовать в опросах
    Вы не можете прикреплять файлы к сообщениям
    Вы можете скачивать файлы