Ссылка на приватное зеркало нашего сайта всего за 1$. Внимание количество ограничено!!!

2 сезон

iTunes

1 сезон

1

2 сезон

2 сезон

iTunes

1 сезон

RePack

30

Ultimate

ВАЖНО

ИГРА 18+

pack

RePack

MK11
pack

Забери бонус

RePack

jed

!!Акция!!

Alien_Rage

RePack

fifa19

RePack

Assassins Creed: Odyssey

RePack

NEED FOR SPEED™ PAYBACK

4 сезон

9 сезон

Бесстыжие 9 сезон

Все сериалы

все сериалы на PB.wtf

RePack

FAR CRY 5
  

Ривьера / Riviera / Сезон: 2 / Серии: 1-10 из 10 (Ханс Херботс, Филипп Кадельбах, Адриан Лестер) [2019, триллер, драма, WEBRip 1080p] MVO [TVShows] pb.wtf

Ривьера через торрент pb.wtf

Размер: 24.31 GB | Добавлен: 1 год 4 мес. назад | Торрент скачан:6 раз
Скачать  

10-06-2019 08:46 Ривьера Скачать торрент  

Ривьера | Riviera Год выпуска: 2019
Страна: Великобритания
Жанр: триллер, драма
Продолжительность: ~ 00:50:00
Перевод: Профессиональный (многоголосый) | TVShows
Субтитры: Rus, Eng (SDH)

Режиссёр: Ханс Херботс, Филипп Кадельбах, Адриан Лестер

В ролях:

Джулия Стайлз, Иван Реон, Лена Олин, Димитрий Леонидас, Роксана Дюран, Игал Наор, Адриан Лестер, Амр Вакед, Алекс Лани, Даниил Воробьев и др.

Описание:

После того, как новобрачный Джорджины, миллиардер Константин, был убит посредством взрыва на яхте, она с ужасом понимает, что высокое положение в обществе и образ жизни, который он вел, в реальности окружены насилием, ложью и убийствами. Теперь она вынуждена выйти из зоны своего комфорта, чтобы попытаться защитить не только свою семью, но и собственную жизнь тоже…

rating

Качество: WEBRip 1080p
Формат: MKV

Видео: AVC, 1920 x 1080 (1.778), 25.000 fps, ~7950 kbps
Аудио Rus: AC-3, 48 kHz, 6 ch, 384 kbps |TVShows|
Аудио Eng: E-AC-3, 48 kHz, 6 ch, 384 kbps |Original|
General
Complete name : G:\Ривьера (Сезон 2) TVShows\Riviera.S02E01.WEBRip.RGzsRutracker.Celta88.avi
Format : AVI
Format/Info : Audio Video Interleave
File size : 775 MiB
Duration : 49 min 12 s
Overall bit rate : 2 202 kb/s
Writing application : VirtualDubMod 1.5.10.2 (build 2540/release)
Writing library : VirtualDubMod build 2540/release

Video
ID : 0
Format : MPEG-4 Visual
Format profile : Advanced Simple@L5
Format settings, BVOP : 1
Format settings, QPel : No
Format settings, GMC : No warppoints
Format settings, Matrix : Custom
Codec ID : XVID
Codec ID/Hint : XviD
Duration : 49 min 12 s
Bit rate : 2 000 kb/s
Width : 704 pixels
Height : 352 pixels
Display aspect ratio : 2.000
Frame rate : 25.000 FPS
Color space : YUV
Chroma subsampling : 4:2:0
Bit depth : 8 bits
Scan type : Progressive
Compression mode : Lossy
Bits/(Pixel*Frame) : 0.323
Stream size : 704 MiB (91%)
Writing library : XviD 73

Audio
ID : 1
Format : AC-3
Format/Info : Audio Coding 3
Mode extension : CM (complete main)
Format settings, Endianness : Big
Codec ID : 2000
Duration : 49 min 12 s
Bit rate mode : Constant
Bit rate : 192 kb/s
Channel(s) : 2 channels
Channel positions : Front: L R
Sampling rate : 48.0 kHz
Frame rate : 31.250 FPS (1536 spf)
Bit depth : 16 bits
Compression mode : Lossy
Stream size : 67.6 MiB (9%)
Alignment : Split accross interleaves
Interleave, duration : 40 ms (1.00 video frame)
Interleave, preload duratio : 500 ms
скриншот   скриншот   скриншот   скриншот   скриншот  
Внимание! Раздача ведётся путём добавления новых серий; при каждом добавлении создаётся новый торрент.
Чтобы начать докачку новой серии, пользователям необходимо сделать следующее:
1. Остановить скачивание.
2. Удалить старый торрент у себя из клиента (старые серии удалять не надо).
3. Скачать новый торрент и запустить его у себя в клиенте вместо старого, при этом указать клиенту путь в старую папку куда и должно происходить скачивание новых серий.
Ваш клиент при этом должен произвести хеширование (проверку) старой папки (если не производит сам - помогите ему сделать это), и будет докачивать только те серии которых у вас ещё нет. Старые серии при этом не удаляются, а продолжают раздаваться!
Eсли вы уже удалили старые серии, то предотвратить повторную закачку старых серий можно, отжав галочку в соответствующих местах при запуске нового торрента.
pb.wtf



Скачать Ривьера через торрент http://i102.fastpic.ru/big/2018/0108/ca/cfeaba17b4183a705e80fc492eceffca.jpg Скачать фильм Ривьера через торрент бесплантно в хорошем качестве Описание: После того, как новобрачный Джорджины, миллиардер Константин, был убит посредством взрыва на яхте, она с ужасом понимает, что ... 7.8 10 4
Торрент: Зарегистрирован [2019-06-29 09:48] · скачан: 6 раз
Статус: √ проверено
Размер: 24.31 GB
Как cкачать? Как скачать Ривьера через торрент | qTorrent

% Раздел Тема Автор DL S | L
Зарубежные сериалы [ 7.2 GB ] Ривьера / Riviera / Сезон: 2 / Серии: 1-10 из 10 [2019 WEBRip] [MVO] killermax2013 Скачать
4 | 0

28-11-2019 20:33  

Отключить всю рекламу на сайте

02-07-2019 05:50 Ривьера Скачать торрент  

Гораздо слабее чем первый сезон!pb.wtf



    Дорогой пользователь! Огромная просьба, поблагодарите релизера, оцените раздачу и оставьте свои комментарий, если Вы скачали Ривьера через торрент бесплатно! Внесите свою лепту в развитие PiratBit!
    Комментировать посты могут только пользователи прошедшие не сложную регистрацию
    Показать сообщения:    

    Ривьера через торрент
    Скачать бесплатно Ривьера
    Ривьера скачать торрент
    Ривьера смотреть онлайн
    Cкачать фильм Ривьера бесплатно
    Ривьера скачать торрент в хорошем качестве
    Ривьера смотреть онлайн бесплатно в хорошем качестве


    Вы не можете начинать темы
    Вы не можете отвечать на сообщения
    Вы не можете редактировать свои сообщения
    Вы не можете удалять свои сообщения
    Вы не можете голосовать в опросах
    Вы не можете прикреплять файлы к сообщениям
    Вы можете скачивать файлы