новый адрес
Мега распродажа FORZA HORIZON 4 ULTIMATE+ВСЕ DLC+ОНЛАЙН всего за 499р. 349 руб. (супер цена). Внимание количество ограничено!!!

iTunes

1+1

iTunes

мы

iTunes

1

iTunes

Чернобыль

iTunes

Ральф против интернета

Лицензия

ПШазам

Лицензия

Игра престолов

Лицензия

30
pack

ВАЖНО

!!Акция!!

Alien_RageХит недели

RePack

Resident Evil 21

ИГРА 18+

pack

RePack

Metro:Exodus

!!Акция!!

Alien_Rage

RePack

fifa19

RePack

Assassins Creed: Odyssey

RePack

NEED FOR SPEED™ PAYBACK

3 сезон

9 сезон

Бесстыжие 9 сезон

Все сериалы

все сериалы на PB.wtf

RePack

FAR CRY 5
Ребята, катастрофически не хватает 1900р. для оплаты серверов за Октябрь (всвязи с блокировками трафик упал в 3 раза), 1-2р., выручайте.
  

Под землёй (Роланд Калныньш) [1963, военный, драма, SATRip-AVC от AVP Studio] pb.wtf

Под землёй через торрент pb.wtf

Раздают: 2 [ 0 KB/s ] Качают: 1 [ 0 KB/s ]
Размер: 500 MB | Добавлен: 5 мес. 7 д. назад | Торрент скачан:15 раз
Скачать  

10-06-2019 10:28 Под землёй Скачать торрент  

Под землёй
Страна: СССР
Производство: Рижская киностудия

Жанр: военный, драма
Год выпуска: 1963
Продолжительность: 00:38:01

Перевод: Не требуется
Cубтитры: нет
Оригинальная аудиодорожка: русский

Режиссер: Роланд Калныньш

В ролях:
Женя Евсеев, Вася Зевакин, Люся Пикаревская, Алексей Сафонов, Миша Долгов, Родион Гордиенко, Янис Кубилис, Владимир Цибин, Алексей Михайлов...
Об актёрах подробней

Описание:
Разведчик Смоляков (Алексей Сафонов) тяжело ранен. С картой, где отмечены военные объекты фашистов, он пробирается к своим. Его находят без сознания местные школьники и укрывают в пещерах. Ребята берутся доставить карту через линию фронта. Люба остается с раненым, а Вася и Ерёма отправляются в опасный путь подземными ходами. Враги по доносу старосты Стоедова устанавливают слежку за ребятами. Они схватили Любу, но ей удалось бежать. Карта доставлена в штаб. Группа советских разведчиков пробирается в подземелье, где спрятан Смоляков. Разведчики уничтожают эсэсовцев, которые преследовали ребят. Начинается наступление советских войск.

Исходник: DVB
Качество видео: SATRip-AVC
Формат видео: MKV

Видео: 704->755x538 (1,407:1), 25,000 кадров/сек, H264 ~ 1646 kbps avg, 0.174 bit/pixel
Аудио: 48 kHz, Dolby Digital AC3 2.0, 192 kbps

Раздача от:
Общее
Полное имя : Pod.zemlyoy.1963.SATRip-AVC_[New-team]_by_AVP_Studio.mkv
Формат : Matroska
Версия формата : Version 2
Размер файла : 500 Мбайт
Продолжительность : 38 м. 1 с.
Общий поток : 1840 Кбит/сек
Дата кодирования : UTC 2019-06-06 14:43:15
Программа кодирования : mkvmerge v6.1.0 ('Old Devil') built on Mar 4 2013 09:10:42
Библиотека кодирования : libebml v1.3.0 + libmatroska v1.4.0

Видео
Идентификатор : 1
Формат : AVC
Формат/Информация : Advanced Video Codec
Профиль формата : High@L4.1
Настройки формата : CABAC / 10 Ref Frames
Параметр CABAC формата : Да
Параметр RefFrames формата : 10 кадров
Идентификатор кодека : V_MPEG4/ISO/AVC
Продолжительность : 38 м. 1 с.
Битрейт : 1646 Кбит/сек
Ширина : 704 пикселя
Высота : 538 пикселей
Соотношение сторон : 1,407
Режим частоты кадров : Постоянный
Частота кадров : 25,000 кадров/сек
Цветовое пространство : YUV
Субдискретизация насыщенности : 4:2:0
Битовая глубина : 8 бит
Тип развёртки : Прогрессивная
Бит/(Пиксели*Кадры) : 0.174
Размер потока : 438 Мбайт (88%)
Библиотека кодирования : x264 core 157 r2932 303c484
Настройки программы : cabac=1 / ref=10 / deblock=1:-2:-1 / analyse=0x3:0x113 / me=umh / subme=10 / psy=1 / psy_rd=1.00:0.00 / mixed_ref=1 / me_range=32 / chroma_me=1 / trellis=2 / 8x8dct=1 / cqm=0 / deadzone=21,11 / fast_pskip=1 / chroma_qp_offset=-2 / threads=6 / lookahead_threads=1 / sliced_threads=0 / nr=0 / decimate=0 / interlaced=0 / bluray_compat=0 / constrained_intra=0 / bframes=8 / b_pyramid=2 / b_adapt=2 / b_bias=0 / direct=3 / weightb=1 / open_gop=0 / weightp=2 / keyint=250 / keyint_min=25 / scenecut=40 / intra_refresh=0 / rc=2pass / mbtree=0 / bitrate=1646 / ratetol=1.0 / qcomp=0.60 / qpmin=0 / qpmax=69 / qpstep=4 / cplxblur=20.0 / qblur=0.5 / ip_ratio=1.40 / pb_ratio=1.30 / aq=1:1.00
Default : Да
Forced : Нет

Аудио
Идентификатор : 2
Формат : AC-3
Формат/Информация : Audio Coding 3
Коммерческое название : Dolby Digital
Идентификатор кодека : A_AC3
Продолжительность : 38 м. 1 с.
Вид битрейта : Постоянный
Битрейт : 192 Кбит/сек
Каналы : 2 канала
ChannelLayout : L R
Частота : 48,0 КГц
Частота кадров : 31,250 кадров/сек (1536 SPF)
Битовая глубина : 16 бит
Метод сжатия : С потерями
Размер потока : 52,2 Мбайт (10%)
Default : Да
Forced : Нет
pb.wtf



Скачать Под землёй через торрент http://picplus.ru/img/1906/10/d0c65755.png Скачать фильм Под землёй через торрент бесплантно в хорошем качестве Описание:Разведчик Смоляков (Алексей Сафонов) тяжело ранен. С картой, где отмечены военные объекты фашистов, он пробирается к своим. Его ... 9 10 1
Info! Золотая раздача, скачанное не засчитывается.
Торрент: Зарегистрирован [2019-06-10 10:28] · скачан: 15 раз
Статус: √ проверено
Размер: 500 MB
Как cкачать? Как скачать Под землёй через торрент | qTorrent

% Раздел Тема Автор DL S | L
Кино СССР [ 372 MB ] Под землёй [1963 военный SATRip от AVP Studio] AVP Studio Скачать
2 | 1
Рок, Панк, Альтернатива (mp3) [ 88 MB ] Бригадный подряд - Плоская Земля 2018 / MP3 / 320 kbps / Punk Rock oleg8 Скачать
4 | 0
T Фильмы 2013 (Звук TS, Cam, VO, DVO) [ 1.36 GB ] Под землёй / Beneath [2013 WEB-DLRip] VO [datynet] lug30 Скачать
1 | 0
Фильмы 2014 (Звук TS, Cam, VO, DVO) [ 1.32 GB ] 20 футов под землёй: И пала тьма / 20 Ft Below: The Darkness Descending [2014 WEB-DLRipЛюбительский [den904 DeadSno] Ворон Скачать
1 | 0
Фильмы 2014 (Звук TS, Cam, VO, DVO) [ 2.06 GB ] 20 футов под землёй: И пала тьма / 20 Ft Below: The Darkness Descending [2014 WEB-DLRip Любительский двухголосый] coc900 Скачать
1 | 0
Фильмы 2006-2008 [ 1.37 GB ] Земля под ударом / Earthstorm [2006 катастрофа DVDRip многоголосый ] axeplay Скачать
1 | 0
Фильмы 2010 [ 1.46 GB ] Из под земли / Mandrake [2010 HDRip ] PsYcho Скачать
1 | 0


>> Регистрируемся здесь <<






Отзывы и комментарии о схеме читаем и пишем здесь: ---> Отзывы и комментарии о схеме

Новые благодарочки в телеграм довольных пользователей:
скриншот   скриншот   скриншот   скриншот   скриншот
    Дорогой пользователь! Огромная просьба, поблагодарите релизера, оцените раздачу и оставьте свои комментарий, если Вы скачали Под землёй через торрент бесплатно! Внесите свою лепту в развитие PiratBit!
    Комментировать посты могут только пользователи прошедшие не сложную регистрацию
    Показать сообщения:    

    Под землёй через торрент
    Скачать бесплатно Под землёй
    Под землёй скачать торрент
    Под землёй смотреть онлайн
    Cкачать фильм Под землёй бесплатно
    Под землёй скачать торрент в хорошем качестве
    Под землёй смотреть онлайн бесплатно в хорошем качестве


    Вы не можете начинать темы
    Вы не можете отвечать на сообщения
    Вы не можете редактировать свои сообщения
    Вы не можете удалять свои сообщения
    Вы не можете голосовать в опросах
    Вы не можете прикреплять файлы к сообщениям
    Вы можете скачивать файлы