Ссылка на приватное зеркало всего за 1$. Внимание количество ограничено!!!

OK

1+1

iTunes

мы

OK

1

WEB-DLRip

Джокер

Пифагор

Ведьмак / The Witcher сериал

Лицензия

ПШазам

ОК

Оно 2

iTunes

30
pack

Вам бонус

ВАЖНО

!!Акция!!

Alien_RageХит недели

RePack

Resident Evil 21

ИГРА 18+

pack

RePack

jed

!!Акция!!

Alien_Rage

RePack

fifa19

RePack

Assassins Creed: Odyssey

RePack

NEED FOR SPEED™ PAYBACK

4 сезон

9 сезон

Бесстыжие 9 сезон

Все сериалы

все сериалы на PB.wtf

RePack

FAR CRY 5
  

Капитан Марвел / Captain Marvel (Анна Боден, Райан Флек) [2019, фантастика, боевик, приключения, UHD BDRip 2160p] [SDR] DUB [iTunes] pb.wtf

Капитан Марвел через торрент pb.wtf

Размер: 13.14 GB | Добавлен: 7 мес. назад | Торрент скачан:196 раз
Скачать  

10-06-2019 14:23 Капитан Марвел Скачать торрент  

Капитан Марвел / Captain Marvel««Быстрее. Выше. Сильнее»»

Год выпуска: 2019
Страна: США
Жанр: фантастика, боевик, приключения
Продолжительность: 02:03:40
Перевод: Дублированный | iTunes
Субтитры: Русские (полные, форсированные, SDH), английские
Режиссер: Анна Боден, Райан Флек
В ролях:

Бри Ларсон (Carol Danvers / Vers / Captain Marvel), Сэмюэл Л. Джексон (Nick Fury), Бен Мендельсон (Talos / Keller), Джуд Лоу (Yon-Rogg), Аннетт Бенинг (Supreme Intelligence / Dr. Wendy Lawson), Лашана Линч (Maria Rambeau), Кларк Грегг (Agent Coulson), Рюн Темт (Bron-Char), Джемма Чан (Minn-Erva), Альхенис Перес Сото (Att-Lass), Джимон Хонсу (Korath), Ли Пейс (Ronan)
Описание:
После столкновения с враждующими инопланетными расами, пилот военно-воздушных сил Кэрол Дэнверс обретает суперсилу и становится неуязвимой. Героине предстоит совладать со своими новыми способностями, чтобы противостоять могущественному врагу.
Рейтинг:

MPAA: PG-13 - Детям до 13 лет просмотр не желателен
Качество: UHD BDRip 2160p | SDR
Формат: MKV
Видео: HEVC, 14.2 Mбит/с, 3840x1608, 10 бит
Аудио: AC3 5.1, 48 kHz, 384 kbps Русский_Дублированное_iTunes
Аудио: AC3 5.1, 48 kHz, 640 kbps Английский
Навигация по главам: есть
General
Unique ID : 166059633769162798856643337640043876489 (0x7CEDEC1040C3861A53E47CEB88941089)
Complete name : D:\Video111\Captain.Marvel.2019.BDRip.2160p.10.bit.SDR.seleZen.mkv
Format : Matroska
Format version : Version 4
File size : 13.1 GiB
Duration : 2 h 3 min
Overall bit rate : 15.2 Mb/s
Movie name : Captain Marvel 2019 from селезень
Encoded date : UTC 2019-06-03 10:41:25
Writing application : mkvmerge v33.1.0 ('Primrose') 64-bit
Writing library : libebml v1.3.7 + libmatroska v1.5.0

Video
ID : 1
Format : HEVC
Format/Info : High Efficiency Video Coding
Format profile : Main 10@L5.1@High
Codec ID : V_MPEGH/ISO/HEVC
Duration : 2 h 3 min
Bit rate : 14.2 Mb/s
Width : 3 840 pixels
Height : 1 608 pixels
Display aspect ratio : 2.40:1
Frame rate mode : Constant
Frame rate : 23.976 (24000/1001) FPS
Color space : YUV
Chroma subsampling : 4:2:0
Bit depth : 10 bits
Bits/(Pixel*Frame) : 0.096
Stream size : 12.3 GiB (93%)
Title : SWTYBLZ
Writing library : x265 3.0+1-ed72af837053:[Windows][GCC 8.2.0][64 bit] 10bit
Encoding settings : cpuid=1111039 / frame-threads=16 / numa-pools=24,24,24,24 / wpp / no-pmode / no-pme / no-psnr / no-ssim / log-level=2 / input-csp=1 / input-res=3840x1608 / interlace=0 / total-frames=177939 / level-idc=51 / high-tier=1 / uhd-bd=0 / ref=3 / no-allow-non-conformance / repeat-headers / annexb / aud / hrd / info / hash=0 / no-temporal-layers / no-open-gop / min-keyint=1 / keyint=24 / gop-lookahead=0 / bframes=4 / b-adapt=2 / b-pyramid / bframe-bias=0 / rc-lookahead=25 / lookahead-slices=4 / scenecut=40 / radl=0 / no-splice / no-intra-refresh / ctu=64 / min-cu-size=8 / no-rect / no-amp / max-tu-size=32 / tu-inter-depth=1 / tu-intra-depth=1 / limit-tu=0 / rdoq-level=0 / dynamic-rd=0.00 / no-ssim-rd / signhide / no-tskip / nr-intra=0 / nr-inter=0 / no-constrained-intra / strong-intra-smoothing / max-merge=2 / limit-refs=3 / no-limit-modes / me=1 / subme=2 / merange=57 / temporal-mvp / weightp / no-weightb / no-analyze-src-pics / deblock=0:0 / no-sao / no-sao-non-deblock / rd=3 / no-early-skip / rskip / no-fast-intra / no-tskip-fast / no-cu-lossless / no-b-intra / no-splitrd-skip / rdpenalty=0 / psy-rd=2.00 / psy-rdoq=0.00 / no-rd-refine / no-lossless / cbqpoffs=0 / crqpoffs=0 / rc=crf / crf=16.0 / qcomp=0.60 / qpstep=4 / stats-write=0 / stats-read=0 / vbv-maxrate=160000 / vbv-bufsize=160000 / vbv-init=0.9 / crf-max=0.0 / crf-min=0.0 / ipratio=1.40 / pbratio=1.30 / aq-mode=1 / aq-strength=1.00 / cutree / zone-count=0 / no-strict-cbr / qg-size=32 / no-rc-grain / qpmax=69 / qpmin=0 / no-const-vbv / sar=1 / overscan=0 / videoformat=5 / range=0 / colorprim=2 / transfer=2 / colormatrix=2 / chromaloc=0 / display-window=0 / max-cll=0,0 / min-luma=0 / max-luma=1023 / log2-max-poc-lsb=8 / vui-timing-info / vui-hrd-info / slices=1 / opt-qp-pps / opt-ref-list-length-pps / no-multi-pass-opt-rps / scenecut-bias=0.05 / no-opt-cu-delta-qp / no-aq-motion / no-hdr / no-hdr-opt / no-dhdr10-opt / no-idr-recovery-sei / analysis-reuse-level=5 / scale-factor=0 / refine-intra=0 / refine-inter=0 / refine-mv=0 / refine-ctu-distortion=0 / no-limit-sao / ctu-info=0 / no-lowpass-dct / refine-analysis-type=0 / copy-pic=1 / max-ausize-factor=1.0 / no-dynamic-refine / no-single-sei / no-hevc-aq / qp-adaptation-range=1.00
Language : English
Default : Yes
Forced : No

Audio #1
ID : 2
Format : AC-3
Format/Info : Audio Coding 3
Commercial name : Dolby Digital
Codec ID : A_AC3
Duration : 2 h 3 min
Bit rate mode : Constant
Bit rate : 384 kb/s
Channel(s) : 6 channels
Channel layout : L R C LFE Ls Rs
Sampling rate : 48.0 kHz
Frame rate : 31.250 FPS (1536 SPF)
Bit depth : 16 bits
Compression mode : Lossy
Stream size : 340 MiB (3%)
Title : iTunes
Language : Russian
Service kind : Complete Main
Default : Yes
Forced : Yes

Audio #2
ID : 3
Format : AC-3
Format/Info : Audio Coding 3
Commercial name : Dolby Digital
Codec ID : A_AC3
Duration : 2 h 3 min
Bit rate mode : Constant
Bit rate : 640 kb/s
Channel(s) : 6 channels
Channel layout : L R C LFE Ls Rs
Sampling rate : 48.0 kHz
Frame rate : 31.250 FPS (1536 SPF)
Bit depth : 16 bits
Compression mode : Lossy
Stream size : 566 MiB (4%)
Title : Original
Language : English
Service kind : Complete Main
Default : No
Forced : No

Text #1
ID : 4
Format : UTF-8
Codec ID : S_TEXT/UTF8
Codec ID/Info : UTF-8 Plain Text
Duration : 1 h 55 min
Bit rate : 1 b/s
Count of elements : 17
Stream size : 937 Bytes (0%)
Title : Forced
Language : Russian
Default : Yes
Forced : Yes

Text #2
ID : 5
Format : UTF-8
Codec ID : S_TEXT/UTF8
Codec ID/Info : UTF-8 Plain Text
Duration : 2 h 2 min
Bit rate : 65 b/s
Count of elements : 1314
Stream size : 58.8 KiB (0%)
Title : Full
Language : Russian
Default : No
Forced : No

Text #3
ID : 6
Format : UTF-8
Codec ID : S_TEXT/UTF8
Codec ID/Info : UTF-8 Plain Text
Duration : 2 h 2 min
Bit rate : 77 b/s
Count of elements : 1637
Stream size : 69.2 KiB (0%)
Title : SDH
Language : Russian
Default : No
Forced : No

Text #4
ID : 7
Format : UTF-8
Codec ID : S_TEXT/UTF8
Codec ID/Info : UTF-8 Plain Text
Duration : 1 h 53 min
Bit rate : 47 b/s
Count of elements : 1422
Stream size : 39.6 KiB (0%)
Title : Full
Language : English
Default : No
Forced : No

Text #5
ID : 8
Format : UTF-8
Codec ID : S_TEXT/UTF8
Codec ID/Info : UTF-8 Plain Text
Duration : 2 h 2 min
Bit rate : 50 b/s
Count of elements : 1668
Stream size : 45.1 KiB (0%)
Title : SDH
Language : English
Default : No
Forced : No

Text #6
ID : 9
Format : UTF-8
Codec ID : S_TEXT/UTF8
Codec ID/Info : UTF-8 Plain Text
Duration : 2 h 2 min
Bit rate : 67 b/s
Count of elements : 1665
Stream size : 60.9 KiB (0%)
Title : SDH Colored
Language : English
Default : No
Forced : No

Menu
00:00:00.000 : en:"Dreams Again"
00:06:51.286 : en:Search And Rescue
00:14:07.055 : en:Memory Manipulation
00:23:17.438 : en:Planet C-53
00:29:37.192 : en:Subway Skrull
00:35:06.938 : en:Searching For Answers
00:44:07.603 : en:Project P.E.G.A.S.U.S.
00:50:42.665 : en:Backup Arrives
00:56:17.791 : en:Reunited
01:03:01.987 : en:Revelation
01:11:16.564 : en:"You Are Carol Danvers"
01:17:48.330 : en:Skrull Survivors
01:27:02.217 : en:"Finally Set Free"
01:33:21.596 : en:Starforce Battle
01:40:50.962 : en:Ronan's Offensive
01:46:24.253 : en:Taking The Initiative
01:52:49.054 : en:End Credits
pb.wtf



Скачать Капитан Марвел через торрент https://b.radikal.ru/b24/1906/54/d896a45bfcef.png Скачать фильм Капитан Марвел через торрент бесплантно в хорошем качестве Описание: После столкновения с враждующими инопланетными расами, пилот военно-воздушных сил Кэрол Дэнверс обретает суперсилу и становится ... 10 10 7
Торрент: Зарегистрирован [2019-06-10 14:23] · скачан: 196 раз
Статус: √ проверено
Размер: 13.14 GB
Как cкачать? Как скачать Капитан Марвел через торрент | qTorrent

% Раздел Тема Автор DL S | L
Порно фильмы с сюжетом [ 982 MB ] Капитан Марвел: XXX Пародия / Captain Marvel XXX: An Axel Braun Parody [2019 Big Budget Cosplay Couples Feature Made for Women Parody Superhero Transsexual WEB-DL] bashai5 Скачать
6 | 0
Фильмы 2019-2020 [DVDrip, WEB-DLRip, HDrip] (DUB, MVO) [ 2.27 GB ] Капитан Марвел / Captain Marvel [2019 BDRip-AVC Dub MVO] от ExKinoRay morfyi Скачать
25 | 0
Фильмы 2019-2020 [DVDrip, WEB-DLRip, HDrip] (DUB, MVO) [ 2.18 GB ] Капитан Марвел / Captain Marvel [2019 BDRip] - [] Twi7ter Скачать
99 | 24
Официальные cаундтреки к зарубежным фильмам [ 1.2 GB ] OST - Капитан Марвел / Captain Marvel 2019 / FLAC / lossless / Score bober100 Скачать
1 | 0
Официальные cаундтреки к зарубежным фильмам [ 157 MB ] OST - Капитан Марвел / Captain Marvel 2019 / MP3 / 320 kbps / Score bober100 Скачать
1 | 0
Фильмы 2019-2020 [DVDrip, WEB-DLRip, HDrip] (DUB, MVO) [ 1.45 GB ] Капитан Марвел / Captain Marvel [2019 WEB-DLRip] [Локализованная версия / Open Matte] killermax2013 Скачать
10 | 0
Фильмы (Blu-ray, BD-Remux, HDDVD) [ 40.51 GB ] Капитан Марвел / Captain Marvel [2019 Blu-ray EUR 1080p] DUB [] sheker187 Скачать
1 | 0

28-11-2019 20:33  

Отключить всю рекламу на сайте

    Дорогой пользователь! Огромная просьба, поблагодарите релизера, оцените раздачу и оставьте свои комментарий, если Вы скачали Капитан Марвел через торрент бесплатно! Внесите свою лепту в развитие PiratBit!
    Комментировать посты могут только пользователи прошедшие не сложную регистрацию
    Показать сообщения:    

    Капитан Марвел через торрент
    Скачать бесплатно Капитан Марвел
    Капитан Марвел скачать торрент
    Капитан Марвел смотреть онлайн
    Cкачать фильм Капитан Марвел бесплатно
    Капитан Марвел скачать торрент в хорошем качестве
    Капитан Марвел смотреть онлайн бесплатно в хорошем качестве


    Вы не можете начинать темы
    Вы не можете отвечать на сообщения
    Вы не можете редактировать свои сообщения
    Вы не можете удалять свои сообщения
    Вы не можете голосовать в опросах
    Вы не можете прикреплять файлы к сообщениям
    Вы можете скачивать файлы