Ссылка на приватное зеркало нашего сайта всего за 1$. Внимание количество ограничено!!!

2 сезон

iTunes

1 сезон

1

2 сезон

2 сезон

iTunes

1 сезон

RePack

30

Новинка

ВАЖНО

ИГРА 18+

pack

RePack

MK11
pack

Забери бонус

RePack

jed

!!Акция!!

Alien_Rage

RePack

fifa19

RePack

Assassins Creed: Odyssey

RePack

NEED FOR SPEED™ PAYBACK

4 сезон

9 сезон

Бесстыжие 9 сезон

Все сериалы

все сериалы на PB.wtf

RePack

FAR CRY 5
  

Большая маленькая ложь / Big Little Lies / Сезон: 2 / Серии: 1-7 из 7 (Жан-Марк Валле) [2019, драма, комедия, криминал, WEB-DL 1080p] MVO [Амедиа] pb.wtf

Большая маленькая ложь через торрент pb.wtf

Размер: 24.07 GB | Добавлен: 1 год 4 мес. назад | Торрент скачан:102 раза
Скачать  

10-06-2019 17:34 Большая маленькая ложь Скачать торрент  

Большая маленькая ложь / Big Little Lies Год выпуска: 2019
Страна: США
Жанр: драма, комедия, криминал
Продолжительность: ~ 00:50:00 серия
Перевод: Профессиональный многоголосый | Novamedia по заказу Amedia
Субтитры: Русские, английские

Режиссер: Жан-Марк Валле

rating


В ролях:

Шейлин Вудли, Риз Уизерспун, Николь Кидман, Александр Скарсгард, Адам Скотт, Джеймс Таппер, Лора Дерн, Иэн Эрмитаж, Сара Бэйкер, Ларри Бейтс

Описание:

История о трех матерях, которых объединяет загадочное убийство, произошедшее на родительском собрании в детском саду.

Качество: WEB-DL 1080p
Формат: MKV

Видео: MPEG-4 AVC, ~ 9000 Кбит/с, 1920x1080
Аудио#1: AC3, 48 kHz, 6 ch, 640 kbps
Аудио#2: E-AC3, 48 kHz, 6 ch, 640 kbps
скриншот  скриншот  скриншот  скриншот  скриншот  

Общее
Уникальный идентификатор : 108563389656537096058217869476522340913 (0x51AC8C5D69BF6245B374E744552BB231)
Полное имя : C:\Big.Little.Lies.S02.1080p.AMZN.WEB-DL.DDP5.1.H.264-EniaHD\Big.Little.Lies.S02E01.1080p.AMZN.WEB-DL.DDP5.1.H.264-EniaHD.mkv
Формат : Matroska
Версия формата : Version 4 / Version 2
Размер файла : 3,17 Гбайт
Продолжительность : 44 м. 8 с.
Общий поток : 10,3 Мбит/сек
Название фильма : Big Little Lies 02x01 (What Have They Done?) - EniaHD
Дата кодирования : UTC 2019-06-10 16:55:35
Программа кодирования : mkvmerge v34.0.0 ('Sight and Seen') 64-bit
Библиотека кодирования : libebml v1.3.7 + libmatroska v1.5.0

Видео
Идентификатор : 1
Формат : AVC
Формат/Информация : Advanced Video Codec
Профиль формата : High@L4
Параметр CABAC формата : Да
Параметр RefFrames формата : 4 кадра
Идентификатор кодека : V_MPEG4/ISO/AVC
Продолжительность : 44 м. 8 с.
Вид битрейта : Постоянный
Битрейт : 8884 Кбит/сек
Номинальный битрейт : 10000 Кбит/сек
Ширина : 1920 пикселей
Высота : 1080 пикселей
Соотношение сторон : 16:9
Режим частоты кадров : Постоянный
Частота кадров : 23,976 (24000/1001) кадра/сек
Цветовое пространство : YUV
Субдискретизация насыщенности : 4:2:0
Битовая глубина : 8 бит
Тип развёртки : Прогрессивная
Бит/(Пиксели*Кадры) : 0.177
Размер потока : 2,71 Гбайт (86%)
Язык : English
Default : Да
Forced : Нет
Цветовой диапазон : Limited
Основные цвета : BT.709
Характеристики трансфера : BT.709
Коэффициенты матрицы : BT.709

Аудио #1
Идентификатор : 2
Формат : AC-3
Формат/Информация : Audio Coding 3
Расширение режима : CM (complete main)
Параметр Endianness формата : Big
Идентификатор кодека : A_AC3
Продолжительность : 44 м. 8 с.
Вид битрейта : Постоянный
Битрейт : 640 Кбит/сек
Каналы : 6 каналов
Расположение каналов : Front: L C R, Side: L R, LFE
Частота : 48,0 КГц
Частота кадров : 31,250 кадров/сек (1536 spf)
Метод сжатия : С потерями
Размер потока : 202 Мбайт (6%)
Заголовок : Novamedia
Язык : Russian
Default : Да
Forced : Нет

Аудио #2
Идентификатор : 3
Формат : E-AC-3
Формат/Информация : Audio Coding 3
Параметр Endianness формата : Big
Идентификатор кодека : A_EAC3
Продолжительность : 44 м. 8 с.
Вид битрейта : Постоянный
Битрейт : 640 Кбит/сек
Каналы : 6 каналов
Расположение каналов : Front: L C R, Side: L R, LFE
Частота : 48,0 КГц
Частота кадров : 187,500 кадров/сек (256 spf)
Метод сжатия : С потерями
Размер потока : 202 Мбайт (6%)
Язык : English
Default : Нет
Forced : Нет

Текст #1
Идентификатор : 4
Формат : UTF-8
Идентификатор кодека : S_TEXT/UTF8
Идентификатор кодека/Информация : UTF-8 Plain Text
Заголовок : Forced
Язык : Russian
Default : Да
Forced : Да

Текст #2
Идентификатор : 5
Формат : UTF-8
Идентификатор кодека : S_TEXT/UTF8
Идентификатор кодека/Информация : UTF-8 Plain Text
Заголовок : Full
Язык : Russian
Default : Нет
Forced : Нет

Текст #3
Идентификатор : 6
Формат : UTF-8
Идентификатор кодека : S_TEXT/UTF8
Идентификатор кодека/Информация : UTF-8 Plain Text
Язык : English
Default : Нет
Forced : Нет

Раздача ведется путем добавления новых серий ●]Когда раздача ведётся путём добавления новых серий, при каждом добавлении создётся новый торрент. Чтобы начать докачку новой серии, пользователям необходимо сделать следующее:
(1) остановить скачивание,
(2) удалить старый торрент у себя из клиента (старые серии удалять не надо),
(3) скачать новый торрент и запустить его у себя в клиенте вместо старого, при этом указать клиенту путь в старую папку, куда и должно происходить скачивание новых серий.
Ваш клиент при этом должен произвести хеширование (проверку) старой папки (если не производит сам - помогите ему сделать это), и будет докачивать только те серии, которых у вас ещё нет. Старые серии при этом не удаляются, а продолжают раздаваться!
Eсли вы уже удалили старые серии, то предотвратить повторную закачку старых серий можно, отжав галочку в соответсвующих местах при запуске нового торрента. По возможности, желательно не удалять старые серии как можно дольше, чтобы релизёр не столько продолжал раздавать старые серии, а смог сконцентрироваться на новых.
pb.wtf



Скачать Большая маленькая ложь через торрент https://c.radikal.ru/c00/1906/20/f843d2b94007.jpg Скачать фильм Большая маленькая ложь через торрент бесплантно в хорошем качестве Описание: История о трех матерях, которых объединяет загадочное убийство, произошедшее на родительском собрании в детском ... 8 10 4
Торрент: Зарегистрирован [2019-07-22 06:22] · скачан: 102 раз
Статус: √ проверено
Размер: 24.07 GB
Как cкачать? Как скачать Большая маленькая ложь через торрент | qTorrent

% Раздел Тема Автор DL S | L
Зарубежные сериалы [ 12.66 GB ] Большая маленькая ложь / Big Little Lies / Сезон: 2 / Серии: 1-7 из 7 [2019 WEB-DL 720p] MVO [TVShows] bober100 Скачать
1 | 0
Зарубежные сериалы [ 13.5 GB ] Большая маленькая ложь / Big Little Lies / Сезон: 2 / Серии: 1-7 из 7 [2019 WEB-DL 720p] [MVO] killermax2013 Скачать
1 | 0
Зарубежные сериалы [ 24.29 GB ] Большая маленькая ложь / Big Little Lies / Сезон: 2 / Серии: 1-7 из 7 [2019 WEB-DL 1080p] MVO [TVShows] bober100 Скачать
1 | 0
Зарубежные сериалы [ 6.44 GB ] Большая маленькая ложь / Big Little Lies / Сезон: 2 / Серии: 1-7 из 7 [2019 WEB-DLRip] MVO [Амедиа] bober100 Скачать
1 | 0

28-11-2019 20:33  

Отключить всю рекламу на сайте

    Дорогой пользователь! Огромная просьба, поблагодарите релизера, оцените раздачу и оставьте свои комментарий, если Вы скачали Большая маленькая ложь через торрент бесплатно! Внесите свою лепту в развитие PiratBit!
    Комментировать посты могут только пользователи прошедшие не сложную регистрацию
    Показать сообщения:    

    Большая маленькая ложь через торрент
    Скачать бесплатно Большая маленькая ложь
    Большая маленькая ложь скачать торрент
    Большая маленькая ложь смотреть онлайн
    Cкачать фильм Большая маленькая ложь бесплатно
    Большая маленькая ложь скачать торрент в хорошем качестве
    Большая маленькая ложь смотреть онлайн бесплатно в хорошем качестве


    Вы не можете начинать темы
    Вы не можете отвечать на сообщения
    Вы не можете редактировать свои сообщения
    Вы не можете удалять свои сообщения
    Вы не можете голосовать в опросах
    Вы не можете прикреплять файлы к сообщениям
    Вы можете скачивать файлы