MEGA SALE -50% FORZA HORIZON 4 ULTIMATE+ВСЕ DLC+ОНЛАЙН всего за 599р. 299 руб. (супер цена). Внимание количество ограничено!!!

iTunes

1+1

iTunes

мы

iTunes

1

iTunes

Чернобыль

1 сезон

Ральф против интернета

Лицензия

ПШазам

Лицензия

Игра престолов

Лицензия

30
pack

ВАЖНО

!!Акция!!

Alien_RageХит недели

RePack

Resident Evil 21

ИГРА 18+

pack

RePack

Metro:Exodus

!!Акция!!

Alien_Rage

RePack

fifa19

RePack

Assassins Creed: Odyssey

RePack

NEED FOR SPEED™ PAYBACK

3 сезон

9 сезон

Бесстыжие 9 сезон

Все сериалы

все сериалы на PB.wtf

RePack

FAR CRY 5
Ребята, катастрофически не хватает 7730р. для оплаты серверов за ИЮЛЬ (всвязи с блокировками трафик упал в 3 раза), 1-2р., выручайте.
  

Американские животные / American Animals (Барт Лэйтон / Bart Layton) [2018, драма, криминал, BDRip] MVO (СВ Студия) + Original Eng pb.wtf

Американские животные через торрент pb.wtf

Раздают: 1 [ 0 KB/s ]
Размер: 1.54 GB | Добавлен: 2 мес. 9 д. назад | Торрент скачан:97 раз
Скачать  

11-06-2019 05:38 Американские животные Скачать торрент  

Американские животные / American Animals
Год выпуска: 2018
Страна: Великобритания, США
Жанр: драма, криминал
Продолжительность: 01:56:54
Перевод: Профессиональный (многоголосый) СВ Студия
Субтитры: Английские

Режиссер: Барт Лэйтон / Bart Layton

rating

В ролях: Эван Питерс, Энн Дауд, Барри Кеоган, Блейк Дженнер, Удо Кир, Джаред Абрахамсон, Дрю Старки, Уэйн Дювалл, Лара Грайс, Гэри Басараба

Описание: Основан на реальных событиях. История четырех молодых людей, которые предпринимают попытку совершить одно из самых дерзких ограблений в истории США - похитить одну из самых дорогих книг в мире - «Птицы Америки» Джона Джеймса Одюбона.

Качество: BDRip
Формат: AVI
Аудио кодек: MP3

Видео: XviD,1500 Кбит/с, 720x304
Аудио#1: Русский (MP3, 2 ch, 192 Кбит/с) СВ Студия
Аудио#2: Английский (MP3, 2 ch, 192 Кбит/с) |Оригинал|
Реклама: Присутствует звуковая (в конце 10 сек)
скриншот  
скриншот  
скриншот  
скриншот  

Формат : AVI
Формат/Информация : Audio Video Interleave
Размер файла : 1,54 Гбайт
Продолжительность : 1 ч. 56 м.
Общий поток : 1891 Кбит/сек

Видео
Идентификатор : 0
Формат : MPEG-4 Visual
Профиль формата : Advanced Simple@L5
Настройки формата : BVOP2
Параметр BVOP формата : 2
Параметр QPel формата : Нет
Параметр GMC формата : Без точки перехода
Параметр матрицы формата : Default (H.263)
Идентификатор кодека : XVID
Идентификатор кодека/Подсказка : XviD
Продолжительность : 1 ч. 56 м.
Битрейт : 1500 Кбит/сек
Ширина : 720 пикселей
Высота : 304 пикселя
Соотношение сторон : 2,35:1
Частота кадров : 23,976 (24000/1001) кадра/сек
Цветовое пространство : YUV
Субдискретизация насыщенности : 4:2:0
Битовая глубина : 8 бит
Тип развёртки : Прогрессивная
Метод сжатия : С потерями
Бит/(Пиксели*Кадры) : 0.286
Размер потока : 1,22 Гбайт (79%)
Библиотека кодирования : XviD 67

Аудио #1
Идентификатор : 1
Формат : MPEG Audio
Версия формата : Version 1
Профиль формата : Layer 3
Настройки формата : Joint stereo
Идентификатор кодека : 55
Идентификатор кодека/Подсказка : MP3
Продолжительность : 1 ч. 56 м.
Вид битрейта : Постоянный
Битрейт : 192 Кбит/сек
Каналы : 2 канала
Частота : 48,0 КГц
Частота кадров : 41,667 кадра/сек (1152 SPF)
Метод сжатия : С потерями
Размер потока : 161 Мбайт (10%)
Выравнивание : Соединение по промежуткам
Продолжительность промежутка : 167 мс. (4,00 видеокадра)
Время предзагрузки промежутка : 216 мс.
Заголовок : American.Animals.2018.720p.BluRay.Rus.Eng - [1][0] Russian_audio
Библиотека кодирования : LAME3.100
Настройки программы : -m j -V 4 -q 2 -lowpass 18.6 -b 192

Аудио #2
Идентификатор : 2
Формат : MPEG Audio
Версия формата : Version 1
Профиль формата : Layer 3
Настройки формата : Joint stereo
Идентификатор кодека : 55
Идентификатор кодека/Подсказка : MP3
Продолжительность : 1 ч. 56 м.
Вид битрейта : Постоянный
Битрейт : 192 Кбит/сек
Каналы : 2 канала
Частота : 48,0 КГц
Частота кадров : 41,667 кадра/сек (1152 SPF)
Метод сжатия : С потерями
Размер потока : 161 Мбайт (10%)
Выравнивание : Соединение по промежуткам
Продолжительность промежутка : 167 мс. (4,00 видеокадра)
Время предзагрузки промежутка : 216 мс.
Заголовок : American.Animals.2018.720p.BluRay.Rus.Eng - [2][1] English_audio
Библиотека кодирования : LAME3.100
Настройки программы : -m j -V 4 -q 2 -lowpass 18.6 -b 192

pb.wtf



Скачать Американские животные через торрент http://i3.imageban.ru/out/2018/08/26/de98b3e8cfc009cc2f8174dea483fee8.jpg Скачать фильм Американские животные через торрент бесплантно в хорошем качестве Описание: Основан на реальных событиях. История четырех молодых людей, которые предпринимают попытку совершить одно из самых дерзких ... 10 10 5
Торрент: Зарегистрирован [2019-06-11 05:38] · скачан: 97 раз
Статус: T временная
Размер: 1.54 GB
Как cкачать? Как скачать Американские животные через торрент | qTorrent


>> Регистрируемся здесь <<






Отзывы и комментарии о схеме читаем и пишем здесь: ---> Отзывы и комментарии о схеме

Новые благодарочки в телеграм довольных пользователей:
скриншот   скриншот   скриншот   скриншот   скриншот

21-06-2019 14:31 Американские животные Скачать торрент  

    Дорогой пользователь! Огромная просьба, поблагодарите релизера, оцените раздачу и оставьте свои комментарий, если Вы скачали Американские животные через торрент бесплатно! Внесите свою лепту в развитие PiratBit!
    Комментировать посты могут только пользователи прошедшие не сложную регистрацию
    Показать сообщения:    

    Американские животные через торрент
    Скачать бесплатно Американские животные
    Американские животные скачать торрент
    Американские животные смотреть онлайн
    Cкачать фильм Американские животные бесплатно
    Американские животные скачать торрент в хорошем качестве
    Американские животные смотреть онлайн бесплатно в хорошем качестве


    Вы не можете начинать темы
    Вы не можете отвечать на сообщения
    Вы не можете редактировать свои сообщения
    Вы не можете удалять свои сообщения
    Вы не можете голосовать в опросах
    Вы не можете прикреплять файлы к сообщениям
    Вы можете скачивать файлы