MEGA SALE -50% FORZA HORIZON 4 ULTIMATE+ВСЕ DLC+ОНЛАЙН всего за 599р. 299 руб. (супер цена). Внимание количество ограничено!!!

iTunes

1+1

iTunes

мы

iTunes

1

iTunes

Чернобыль

1 сезон

Ральф против интернета

Лицензия

ПШазам

Лицензия

Игра престолов

Лицензия

30
pack

ВАЖНО

!!Акция!!

Alien_RageХит недели

RePack

Resident Evil 21

ИГРА 18+

pack

RePack

Metro:Exodus

!!Акция!!

Alien_Rage

RePack

fifa19

RePack

Assassins Creed: Odyssey

RePack

NEED FOR SPEED™ PAYBACK

3 сезон

9 сезон

Бесстыжие 9 сезон

Все сериалы

все сериалы на PB.wtf

RePack

FAR CRY 5
Ребята, катастрофически не хватает 7730р. для оплаты серверов за ИЮЛЬ (всвязи с блокировками трафик упал в 3 раза), 1-2р., выручайте.
  

Смотритель маяка / Сезон: 1 / Серии: 1-12 из 12 (Павел Дроздов) [2019, Детектив, WEB-DL 1080p] pb.wtf

Смотритель маяка через торрент pb.wtf

Размер: 25.46 GB | Добавлен: 2 мес. 7 д. назад | Торрент скачан:27 раз
Скачать  

13-06-2019 05:05 Смотритель маяка Скачать торрент  

Смотритель маяка Год выпуска: 2019
Страна: Россия
Жанр: Детектив
Продолжительность: ~ 00:48:00 серия
Перевод: Не требуется
Субтитры: отсутствуют

Режиссер: Павел Дроздов



В ролях:

Егор Бероев, Максим Дрозд, Екатерина Ванчугова, Виктор Тереля, Александра Богданова, Игорь Хрипунов, Василий Мищенко, Константин Снегов, Игорь Климов, Константин Адаев, Игорь Лебедев, Александр Волженский, Дмитрий Харатьян, Роман Пылаев, Михаил Сопов, Александр Богданов (II), Александр Коваль (IV), Вадим Цаллати, Алексей Марков, Вячеслав Гостищев, Сергей Голотвин, Юрий Алехин, А. Василенко, Алёна Гудкова, Роман Гайдамак, Ольга Сопова, Екатерина Архарова

Описание:

1914 год, канун Первой мировой войны. Русская контрразведка узнает о предстоящей крупной диверсии в Kрыму. Немецкий шпион собирается заминировать Севастопольскую бухту, уничтожить главные силы русского флота и открыть путь для немецко-турецкого десанта. Для выполнения задания он использует завербованных русских из самых разных слоев — от офицеров до уголовников. Один из них, Арсений Седов, становится другом шпиона Петра Ремезова. Враг не подозревает, что Арсений на самом деле разведчик Генерального Штаба.

Качество: WEB-DL 1080p
Формат: MKV

Видео: 1920х1080 (16:9), 25 fps, AVC MPEG-4 (x264), High@L4.0 ~ 6000 kbps avg, 0.152 bit/pixel
Аудио: 48 kHz, АС3, 2/0 (L,R), ~192.00 kbps avg
скриншот  скриншот  скриншот  скриншот  

Общее
Уникальный идентификатор : 250359390096590898737469773435982042363 (0xBC5976F1A2847859B1D559C2DAC3D4FB)
Полное имя : C:\Smotritel.mayaka.2018.WEB-DL.(1080p).ExKinoRay\Smotritel.mayaka.(01.seriya.iz.12).2018.WEB-DL.(1080p).ExKinoRay.mkv
Формат : Matroska
Версия формата : Version 4
Размер файла : 2,08 Гбайт
Продолжительность : 48 м. 21 с.
Режим общего битрейта : Постоянный
Общий поток : 6159 Кбит/сек
Дата кодирования : UTC 2019-06-12 02:09:12
Программа кодирования : mkvmerge v7.8.0 (''River Man'') 32bit built on Mar 27 2015 16:18:02
Библиотека кодирования : libebml v1.3.1 + libmatroska v1.4.2

Видео
Идентификатор : 1
Формат : AVC
Формат/Информация : Advanced Video Codec
Профиль формата : High@L4.1
Настройки формата : 2 Ref Frames
Параметр CABAC формата : Нет
Параметр RefFrames формата : 2 кадра
Идентификатор кодека : V_MPEG4/ISO/AVC
Продолжительность : 48 м. 21 с.
Вид битрейта : Постоянный
Битрейт : 6000 Кбит/сек
Ширина : 1920 пикселей
Высота : 1080 пикселей
Соотношение сторон : 16:9
Режим частоты кадров : Постоянный
Частота кадров : 25,000 кадров/сек
Стандарт вещания : PAL
Цветовое пространство : YUV
Субдискретизация насыщенности : 4:2:0
Битовая глубина : 8 бит
Тип развёртки : Прогрессивная
Бит/(Пиксели*Кадры) : 0.116
Размер потока : 2,02 Гбайт (97%)
Default : Да
Forced : Нет
Цветовой диапазон : Limited
Основные цвета : BT.709
Характеристики трансфера : BT.709
Коэффициенты матрицы : BT.709

Аудио
Идентификатор : 2
Формат : AC-3
Формат/Информация : Audio Coding 3
Коммерческое название : Dolby Digital
Идентификатор кодека : A_AC3
Продолжительность : 48 м. 21 с.
Вид битрейта : Постоянный
Битрейт : 192 Кбит/сек
Каналы : 2 канала
ChannelLayout : L R
Частота : 48,0 КГц
Частота кадров : 31,250 кадров/сек (1536 SPF)
Битовая глубина : 16 бит
Метод сжатия : С потерями
Размер потока : 66,4 Мбайт (3%)
Язык : Russian
ServiceKind/String : Complete Main
Default : Да
Forced : Нет

pb.wtf



Скачать Смотритель маяка через торрент http://img16.lostpic.net/2019/06/12/f10279a53fd1ebf67e2f400745779b05.jpg Скачать фильм Смотритель маяка через торрент бесплантно в хорошем качестве Описание: 1914 год, канун Первой мировой войны. Русская контрразведка узнает о предстоящей крупной диверсии в Kрыму. Немецкий шпион ... 10 10 2
Торрент: Зарегистрирован [2019-06-13 05:05] · скачан: 27 раз
Статус: √ проверено
Размер: 25.46 GB
Как cкачать? Как скачать Смотритель маяка через торрент | qTorrent

% Раздел Тема Автор DL S | L
Наши сериалы [ 7.41 GB ] Смотритель маяка / Сезон: 1 / Серии: 1-12 из 12 [2019 WEBRip] bober100 Скачать
2 | 0
Наши сериалы [ 9.06 GB ] Смотритель маяка / Сезон: 1 / Серии: 1-12 из 12 [2019 WEBRip-AVC] bober100 Скачать
3 | 1
Наши сериалы [ 17.31 GB ] Смотритель маяка / Сезон: 1 / Серии: 1-12 из 12 [2019 WEB-DL 720p] bober100 Скачать
1 | 0
Наши сериалы [ 7.45 GB ] Смотритель маяка / Сезон: 1 / Серии: 1-12 из 12 [2019 SATRip] bober100 Скачать
1 | 0


>> Регистрируемся здесь <<






Отзывы и комментарии о схеме читаем и пишем здесь: ---> Отзывы и комментарии о схеме

Новые благодарочки в телеграм довольных пользователей:
скриншот   скриншот   скриншот   скриншот   скриншот
    Дорогой пользователь! Огромная просьба, поблагодарите релизера, оцените раздачу и оставьте свои комментарий, если Вы скачали Смотритель маяка через торрент бесплатно! Внесите свою лепту в развитие PiratBit!
    Комментировать посты могут только пользователи прошедшие не сложную регистрацию
    Показать сообщения:    

    Смотритель маяка через торрент
    Скачать бесплатно Смотритель маяка
    Смотритель маяка скачать торрент
    Смотритель маяка смотреть онлайн
    Cкачать фильм Смотритель маяка бесплатно
    Смотритель маяка скачать торрент в хорошем качестве
    Смотритель маяка смотреть онлайн бесплатно в хорошем качестве


    Вы не можете начинать темы
    Вы не можете отвечать на сообщения
    Вы не можете редактировать свои сообщения
    Вы не можете удалять свои сообщения
    Вы не можете голосовать в опросах
    Вы не можете прикреплять файлы к сообщениям
    Вы можете скачивать файлы