MEGA SALE -50% FORZA HORIZON 4 ULTIMATE+ВСЕ DLC+ОНЛАЙН всего за 599р. 299 руб. (супер цена). Внимание количество ограничено!!!

iTunes

1+1

iTunes

мы

iTunes

1

iTunes

Чернобыль

1 сезон

Ральф против интернета

Лицензия

ПШазам

Лицензия

Игра престолов

Лицензия

30
pack

ВАЖНО

!!Акция!!

Alien_RageХит недели

RePack

Resident Evil 21

ИГРА 18+

pack

RePack

Metro:Exodus

!!Акция!!

Alien_Rage

RePack

fifa19

RePack

Assassins Creed: Odyssey

RePack

NEED FOR SPEED™ PAYBACK

3 сезон

9 сезон

Бесстыжие 9 сезон

Все сериалы

все сериалы на PB.wtf

RePack

FAR CRY 5
Ребята, катастрофически не хватает 7730р. для оплаты серверов за ИЮЛЬ (всвязи с блокировками трафик упал в 3 раза), 1-2р., выручайте.
  

В клетке / Сезон: 1 / Серии: 1-10 из 10 (Артём Аксененко) [2019, Драма, криминал, спорт, WEB-DL 1080p] pb.wtf

В клетке через торрент pb.wtf

Раздают: 3 [ 464 KB/s ] Качают: 4 [ 0 KB/s ]
Размер: 22.59 GB | Добавлен: 5 д. назад | Торрент скачан:20 раз
Скачать  

13-06-2019 06:08 В клетке Скачать торрент  

В клетке Год выпуска: 2019
Страна: Россия
Жанр: Драма, криминал, спорт
Продолжительность: ~ 00:50:00 серия
Субтитры: отсутствуют

Режиссер: Артём Аксененко



В ролях: Павел Прилучный, Владимир Епифанцев, Артур Ваха, Агата Муцениеце, Екатерина Маликова, Наталья Парашкина, Даниил Воробьёв, Лаура Кеосаян, Алексей Ильин

Описание: В Калининград одновременно возвращаются отец и сын Евдокимовы: Сергей, по прозвищу Волчок вышел после семи лет тюрьмы по 228 статье; его отец, Алексей Евдокимов, сбежал в родной город от проблем в Москве. Сергей, вернувшись домой, не понимает, как жить дальше - он обнаруживает что мать окончательно спилась, а бывшая любовь Ольга его уже и не ждала. Кажется, только младший брат Женя счастлив видеть Волчка. А еще Дилер - бывший одноклассник, который за те несколько лет, что Сергей провел в колонии, поднялся от простого барыги до мафиози средней руки. С момента встречи отца и сына начнётся история о преодолении семейных травм, боли и зависимости. Им предстоит выбирать между долгом и любовью, между жизнью и смертью.

Качество: WEB-DL 1080p
Формат: MKV

Видео: MPEG-4 AVC, ~ 6486 Кбит/с, 1920x1080
Аудио: 48 kHz, АС3, 2/0 (L,R), ~192.00 kbps avg
скриншот  скриншот  скриншот  

Общее
Уникальный идентификатор : 183730973501597856062034370776616323797 (0x8A394C612D7FCF85A06AD8D0B916CAD5)
Полное имя : C:\Users\Бобер\Desktop\V.kletke.2019.WEB-DL.(1080p).Getty\V.kletke.e01.2019.WEB-DL.(1080p).Getty.mkv
Формат : Matroska
Версия формата : Version 4 / Version 2
Размер файла : 2,33 Гбайт
Продолжительность : 49 м. 56 с.
Общий поток : 6680 Кбит/сек
Название фильма : V.kletke.e01.2019.WEB-DL.(1080p).Getty
Дата кодирования : UTC 2019-06-12 20:57:33
Программа кодирования : mkvmerge v7.8.0 ('River Man') 32bit built on Mar 27 2015 16:18:02
Библиотека кодирования : libebml v1.3.1 + libmatroska v1.4.2

Видео
Идентификатор : 1
Формат : AVC
Формат/Информация : Advanced Video Codec
Профиль формата : High@L4
Параметр CABAC формата : Да
Параметр RefFrames формата : 4 кадра
Параметр GOP формата : M=2, N=15
Идентификатор кодека : V_MPEG4/ISO/AVC
Продолжительность : 49 м. 56 с.
Битрейт : 6455 Кбит/сек
Ширина : 1920 пикселей
Высота : 1080 пикселей
Соотношение сторон : 16:9
Режим частоты кадров : Постоянный
Частота кадров : 23,976 (24000/1001) кадра/сек
Цветовое пространство : YUV
Субдискретизация насыщенности : 4:2:0
Битовая глубина : 8 бит
Тип развёртки : Прогрессивная
Бит/(Пиксели*Кадры) : 0.128
Размер потока : 2,22 Гбайт (95%)
Default : Да
Forced : Нет

Аудио
Идентификатор : 2
Формат : AC-3
Формат/Информация : Audio Coding 3
Расширение режима : CM (complete main)
Параметр Endianness формата : Big
Идентификатор кодека : A_AC3
Продолжительность : 49 м. 56 с.
Вид битрейта : Постоянный
Битрейт : 192 Кбит/сек
Каналы : 2 канала
Расположение каналов : Front: L R
Частота : 48,0 КГц
Частота кадров : 31,250 кадров/сек (1536 spf)
Метод сжатия : С потерями
Размер потока : 68,6 Мбайт (3%)
Default : Да
Forced : Нет

При каждом добавлении создаётся новый торрент. Чтобы начать докачку новой серии, пользователям необходимо сделать следующее:
- остановить скачивание;
- удалить старый торрент у себя из клиента (старые серии удалять не надо);
- скачать новый торрент и запустить его у себя в клиенте вместо старого, при этом указать клиенту путь в старую папку, куда и должно происходить скачивание новых серий.
pb.wtf



Скачать В клетке через торрент https://i106.fastpic.ru/big/2019/0613/bd/5b25c963d9c9fa56f4ff7255e18864bd.jpg Скачать фильм В клетке через торрент бесплантно в хорошем качестве Описание: В Калининград одновременно возвращаются отец и сын Евдокимовы: Сергей, по прозвищу Волчок вышел после семи лет тюрьмы по 228 ... 9.9 10 14
Торрент: Зарегистрирован [2019-08-14 23:41] · скачан: 20 раз
Статус: √ проверено
Размер: 22.59 GB
Как cкачать? Как скачать В клетке через торрент | qTorrent

% Раздел Тема Автор DL S | L
Наши сериалы [ 14.36 GB ] В клетке / Сезон: 1 / Серии: 1-10 из 10 [2019 WEB-DL 720p] bober100 Скачать
8 | 4
Наши сериалы [ 6.04 GB ] В клетке / Сезон: 1 / Серии: 1-10 из 10 [2019 WEB-DLRip] bober100 Скачать
16 | 4
Наши сериалы [ 6.07 GB ] В клетке / Сезон: 1 / Серии: 1-10 из 10 [2019 WEBRip-AVC] bober100 Скачать
4 | 4


>> Регистрируемся здесь <<






Отзывы и комментарии о схеме читаем и пишем здесь: ---> Отзывы и комментарии о схеме

Новые благодарочки в телеграм довольных пользователей:
скриншот   скриншот   скриншот   скриншот   скриншот
    Дорогой пользователь! Огромная просьба, поблагодарите релизера, оцените раздачу и оставьте свои комментарий, если Вы скачали В клетке через торрент бесплатно! Внесите свою лепту в развитие PiratBit!
    Комментировать посты могут только пользователи прошедшие не сложную регистрацию
    Показать сообщения:    

    В клетке через торрент
    Скачать бесплатно В клетке
    В клетке скачать торрент
    В клетке смотреть онлайн
    Cкачать фильм В клетке бесплатно
    В клетке скачать торрент в хорошем качестве
    В клетке смотреть онлайн бесплатно в хорошем качестве


    Вы не можете начинать темы
    Вы не можете отвечать на сообщения
    Вы не можете редактировать свои сообщения
    Вы не можете удалять свои сообщения
    Вы не можете голосовать в опросах
    Вы не можете прикреплять файлы к сообщениям
    Вы можете скачивать файлы