Мега распродажа FORZA HORIZON 4 ULTIMATE+ВСЕ DLC+ОНЛАЙН всего за 499р. 349 руб. (супер цена). Внимание количество ограничено!!!

Лицензия

30

iTunes

мы

iTunes

1

1 сезон

Чернобыль

1 сезон

Ральф против интернета

MVO

Покемон. Детектив Пикачу

8 сезон

Игра престолов

iTunes

1+1

ИГРА 18+

pack

ВАЖНО

!!Акция!!

Alien_RageХит недели

RePack

Resident Evil 21
pack

RePack

Metro:Exodus

!!Акция!!

Alien_Rage

RePack

fifa19

RePack

Assassins Creed: Odyssey

RePack

NEED FOR SPEED™ PAYBACK

3 сезон

9 сезон

Бесстыжие 9 сезон

Все сериалы

все сериалы на PB.wtf

RePack

FAR CRY 5
Ребята, катастрофически не хватает 2730р. для оплаты серверов за МАЙ (всвязи с блокировками трафик упал в 3 раза), 1-2р., выручайте.
  

В клетке / Сезон: 1 / Серии: 1-2 из 12 (Артём Аксененко) [2019, Драма, криминал, спорт, WEB-DLRip] pb.wtf

В клетке через торрент pb.wtf

Раздают: 10 [ 625 KB/s ] Качают: 1 [ 0 KB/s ]
Размер: 1.21 GB | Добавлен: 4 д. назад | Торрент скачан:85 раз
Скачать  

13-06-2019 06:13 В клетке Скачать торрент  

В клетке Год выпуска: 2019
Страна: Россия
Жанр: Драма, криминал, спорт
Продолжительность: ~ 00:50:00 серия
Субтитры: отсутствуют

Режиссер: Артём Аксененко



В ролях:

Павел Прилучный, Владимир Епифанцев, Артур Ваха, Агата Муцениеце, Екатерина Маликова, Наталья Парашкина, Даниил Воробьёв, Лаура Кеосаян, Алексей Ильин

Описание:

В Калининград одновременно возвращаются отец и сын Евдокимовы: Сергей, по прозвищу Волчок вышел после семи лет тюрьмы по 228 статье; его отец, Алексей Евдокимов, сбежал в родной город от проблем в Москве. Сергей, вернувшись домой, не понимает, как жить дальше - он обнаруживает что мать окончательно спилась, а бывшая любовь Ольга его уже и не ждала. Кажется, только младший брат Женя счастлив видеть Волчка. А еще Дилер - бывший одноклассник, который за те несколько лет, что Сергей провел в колонии, поднялся от простого барыги до мафиози средней руки. С момента встречи отца и сына начнётся история о преодолении семейных травм, боли и зависимости. Им предстоит выбирать между долгом и любовью, между жизнью и смертью.

Качество: WEB-DLRip
Формат: AVI

Видео: 720x272 (2.65:1), 25 fps, XviD MPEG-4 ~1500 kbps avg, 0.240 bit/pixel
Аудио: 48 kHz, АС3, 2/0 (L,R), ~192.00 kbps avg
скриншот  скриншот  скриншот  скриншот  

General
Complete name :Downloads\V.kletke.2019.WEB-DLRip.25Kuzmich\V.kletke.E01.WEB-DLRip.25Kuzmich.avi
Format : AVI
Format/Info : Audio Video Interleave
File size : 600 MiB
Duration : 49mn 56s
Overall bit rate : 1 681 Kbps
Writing application : VirtualDubMod 1.5.10.3 | www.virtualdub-fr.org || (build 2550/release)
Writing library : VirtualDubMod build 2550/release
Video #0
ID : 0
Format : MPEG-4 Visual
Format profile : Advanced Simple@L5
Format settings, BVOP : 1
Format settings, QPel : No
Format settings, GMC : No warppoints
Format settings, Matrix : Default (MPEG)
Codec ID : XVID
Codec ID/Hint : XviD
Duration : 49mn 56s
Bit rate : 1 479 Kbps
Width : 720 pixels
Height : 272 pixels
Display aspect ratio : 2.647
Frame rate : 23.976 fps
Color space : YUV
Chroma subsampling : 4:2:0
Bit depth : 8 bits
Scan type : Progressive
Compression mode : Lossy
Bits/(Pixel*Frame) : 0.315
Stream size : 528 MiB (88%)
Writing library : XviD 73
Audio #1
ID : 1
Format : AC-3
Format/Info : Audio Coding 3
Mode extension : CM (complete main)
Format settings, Endianness : Big
Codec ID : 2000
Duration : 49mn 56s
Bit rate mode : Constant
Bit rate : 192 Kbps
Channel(s) : 2 channels
Channel positions : Front: L R
Sampling rate : 48.0 KHz
Bit depth : 16 bits
Compression mode : Lossy
Stream size : 68.6 MiB (11%)
Alignment : Split accross interleaves
Interleave, duration : 42 ms (1.00 video frame)
Interleave, preload duration : 500 ms

При каждом добавлении создаётся новый торрент. Чтобы начать докачку новой серии, пользователям необходимо сделать следующее:
- остановить скачивание;
- удалить старый торрент у себя из клиента (старые серии удалять не надо);
- скачать новый торрент и запустить его у себя в клиенте вместо старого, при этом указать клиенту путь в старую папку, куда и должно происходить скачивание новых серий.
pb.wtf



Скачать В клетке через торрент https://i106.fastpic.ru/big/2019/0613/bd/5b25c963d9c9fa56f4ff7255e18864bd.jpg Скачать фильм В клетке через торрент бесплантно в хорошем качестве Описание: В Калининград одновременно возвращаются отец и сын Евдокимовы: Сергей, по прозвищу Волчок вышел после семи лет тюрьмы по 228 ... 10 10 5
Торрент: Зарегистрирован [2019-06-13 06:13] · скачан: 85 раз
Статус: √ проверено
Размер: 1.21 GB
Как cкачать? Как скачать В клетке через торрент | qTorrent

% Раздел Тема Автор DL S | L
Наши сериалы [ 4.6 GB ] В клетке / Сезон: 1 / Серии: 1-2 из 12 [2019 WEB-DL 1080p] bober100 Скачать
9 | 1


>> Регистрируемся здесь <<






Отзывы и комментарии о схеме читаем и пишем здесь: ---> Отзывы и комментарии о схеме

Новые благодарочки в телеграм довольных пользователей:
скриншот   скриншот   скриншот   скриншот   скриншот

15-06-2019 20:50 В клетке Скачать торрент  

Авторы сериала походу решили поставить рекорд по обилию мата, наркоты и откровенных сцен и это только начало, интересно что же будет дальше.pb.wtf



    Дорогой пользователь! Огромная просьба, поблагодарите релизера, оцените раздачу и оставьте свои комментарий, если Вы скачали В клетке через торрент бесплатно! Внесите свою лепту в развитие PiratBit!
    Комментировать посты могут только пользователи прошедшие не сложную регистрацию
    Показать сообщения:    

    В клетке через торрент
    Скачать бесплатно В клетке
    В клетке скачать торрент
    В клетке смотреть онлайн
    Cкачать фильм В клетке бесплатно
    В клетке скачать торрент в хорошем качестве
    В клетке смотреть онлайн бесплатно в хорошем качестве


    Вы не можете начинать темы
    Вы не можете отвечать на сообщения
    Вы не можете редактировать свои сообщения
    Вы не можете удалять свои сообщения
    Вы не можете голосовать в опросах
    Вы не можете прикреплять файлы к сообщениям
    Вы можете скачивать файлы