MEGA SALE -50% FORZA HORIZON 4 ULTIMATE+ВСЕ DLC+ОНЛАЙН всего за 599р. 299 руб. (супер цена). Внимание количество ограничено!!!

iTunes

1+1

iTunes

мы

iTunes

1

iTunes

Чернобыль

iTunes

Ральф против интернета

Лицензия

ПШазам

Лицензия

Игра престолов

Лицензия

30
pack

ВАЖНО

!!Акция!!

Alien_RageХит недели

RePack

Resident Evil 21

ИГРА 18+

pack

RePack

Metro:Exodus

!!Акция!!

Alien_Rage

RePack

fifa19

RePack

Assassins Creed: Odyssey

RePack

NEED FOR SPEED™ PAYBACK

3 сезон

9 сезон

Бесстыжие 9 сезон

Все сериалы

все сериалы на PB.wtf

RePack

FAR CRY 5
Ребята, катастрофически не хватает 7730р. для оплаты серверов за АВГУСТ (всвязи с блокировками трафик упал в 3 раза), 1-2р., выручайте.
  

Женщины на грани нервного срыва / Mujeres al borde de un ataque de nervios (Педро Альмодовар) [1988, драма, комедия, BDRip 720p by msltel] 2 x MVO, 2 x AVO pb.wtf

Женщины на грани нервного срыва через торрент pb.wtf

Раздают: 1 [ 0 KB/s ]
Размер: 4.9 GB | Добавлен: 3 мес. 7 д. назад | Торрент скачан:8 раз
Скачать  

13-06-2019 06:36 Женщины на грани нервного срыва Скачать торрент  

Название: Женщины на грани нервного срыва
Оригинальное название: Mujeres al borde de un ataque de nervios
Год выпуска: 1988
Страна: Испания
Жанр: драма, комедия
Продолжительность: 01:28:20
Перевод: профессиональный многоголосый, авторский

Режиссер: Педро Альмодовар
В ролях: Кармен Маура, Антонио Бандерас, Хульета Серрано, Росси де Пальма, Мария Барранко, Кити Манвер, Гильермо Монтесинос, Чус Лампреаве, Эдуардо Кальво, Лолес Леон, Анхел де Андрес Лопес, Хуан Ломардеро, Хосе Антонио Наварро, Ана Леса, Амбите, Мэри Гонзалез, Лупе Баррадо, Хоакин Климент, Чема Джил, Габриэль Латорре, Хавьер Бардем

О фильме: Главную героиню Пепу Маркос бросает любовник Иван. В попытках найти его, чтобы выяснить причину ухода, ей приходится вступить в довольно напряжённые отношения с его бывшей женой Люсией, проявляющей признаки безумия, и сыном Карлосом, но те тоже находятся в полном неведении о его судьбе. В то же время к Пепе заявляется подруга Кандела, уверенная в том, что её ищет полиция, так как её любовник оказался террористом. Вместе они отправляются к адвокату Паулине Моралес, которая, как выясняется позже, и есть новая любовница Ивана. На протяжении всего фильма пути героев пересекаются в причудливой и запутанной манере...



Качество: BDRip 720p
Формат: MKV
Видео: MPEG-4 AVC, 6489 Кбит/с, 1280x690, 24 кадр/с
Аудио 1: русский, AC3, 224 kbps, 2 ch, 48 kHz [закадровый многоголосый, R5, Кармен видео]
Аудио 2: русский, AC3, 192 kbps, 2 ch, 48 kHz [закадровый многоголосый, OPT]
Аудио 3: русский, AC3, 192 kbps, 2 ch, 48 kHz [авторский, Антон Алексеев]
Аудио 4: русский, AC3, 192 kbps, 2 ch, 48 kHz [авторский, Константин Дьяконов]
Аудио 5: испанский, AC3, 640 kbps, 2 ch, 48 kHz [оригинал]
Субтитры: русские
Главы/чаптеры
Общее
Уникальный идентификатор : 201873260514913981673348240135955666487 (0x97DF603079B37B7C8C17B8702A2FD637)
Полное имя : D:\Video\Женщины на грани нервного срыва.1988.BDRip 720p by msltel.mkv
Формат : Matroska
Версия формата : Version 4
Размер файла : 4,90 Гбайт
Продолжительность : 1 ч. 28 м.
Общий поток : 7932 Кбит/сек
Название фильма : Rip by msltel
Дата кодирования : UTC 2019-06-13 05:46:34
Программа кодирования : mkvmerge v8.2.0 ('World of Adventure') 64bit
Библиотека кодирования : libebml v1.3.1 + libmatroska v1.4.2

Видео
Идентификатор : 1
Формат : AVC
Формат/Информация : Advanced Video Codec
Профиль формата : High@L4.1
Настройки формата : CABAC / 9 Ref Frames
Параметр CABAC формата : Да
Параметр RefFrames формата : 9 кадров
Идентификатор кодека : V_MPEG4/ISO/AVC
Продолжительность : 1 ч. 28 м.
Битрейт : 6489 Кбит/сек
Ширина : 1280 пикселей
Высота : 690 пикселей
Соотношение сторон : 1,85:1
Режим частоты кадров : Постоянный
Частота кадров : 24,000 кадра/сек
Цветовое пространство : YUV
Субдискретизация насыщенности : 4:2:0
Битовая глубина : 8 бит
Тип развёртки : Прогрессивная
Бит/(Пиксели*Кадры) : 0.306
Размер потока : 4,00 Гбайт (82%)
Библиотека кодирования : x264 core 157 r2935 545de2f
Настройки программы : cabac=1 / ref=9 / deblock=1:-2:-2 / analyse=0x3:0x113 / me=umh / subme=11 / psy=1 / psy_rd=1.00:0.15 / mixed_ref=1 / me_range=32 / chroma_me=1 / trellis=2 / 8x8dct=1 / cqm=0 / deadzone=21,11 / fast_pskip=0 / chroma_qp_offset=-3 / threads=6 / lookahead_threads=1 / sliced_threads=0 / nr=0 / decimate=1 / interlaced=0 / bluray_compat=0 / constrained_intra=0 / bframes=6 / b_pyramid=2 / b_adapt=2 / b_bias=0 / direct=1 / weightb=1 / open_gop=0 / weightp=2 / keyint=230 / keyint_min=23 / scenecut=40 / intra_refresh=0 / rc_lookahead=40 / rc=crf / mbtree=1 / crf=18.5 / qcomp=0.60 / qpmin=0 / qpmax=69 / qpstep=4 / vbv_maxrate=50000 / vbv_bufsize=62500 / crf_max=0.0 / nal_hrd=none / filler=0 / ip_ratio=1.40 / aq=1:1.00
Язык : Spanish
Default : Да
Forced : Нет

Аудио #1
Идентификатор : 2
Формат : AC-3
Формат/Информация : Audio Coding 3
Коммерческое название : Dolby Digital
Идентификатор кодека : A_AC3
Продолжительность : 1 ч. 28 м.
Вид битрейта : Постоянный
Битрейт : 224 Кбит/сек
Каналы : 2 канала
ChannelLayout : L R
Частота : 48,0 КГц
Частота кадров : 31,250 кадров/сек (1536 SPF)
Битовая глубина : 16 бит
Метод сжатия : С потерями
Размер потока : 142 Мбайт (3%)
Заголовок : MVO R5, Кармен видео
Язык : Russian
ServiceKind/String : Complete Main
Default : Да
Forced : Нет

Аудио #2
Идентификатор : 3
Формат : AC-3
Формат/Информация : Audio Coding 3
Коммерческое название : Dolby Digital
Идентификатор кодека : A_AC3
Продолжительность : 1 ч. 28 м.
Вид битрейта : Постоянный
Битрейт : 192 Кбит/сек
Каналы : 2 канала
ChannelLayout : L R
Частота : 48,0 КГц
Частота кадров : 31,250 кадров/сек (1536 SPF)
Битовая глубина : 16 бит
Метод сжатия : С потерями
Размер потока : 121 Мбайт (2%)
Заголовок : MVO OPT
Язык : Russian
ServiceKind/String : Complete Main
Default : Нет
Forced : Нет

Аудио #3
Идентификатор : 4
Формат : AC-3
Формат/Информация : Audio Coding 3
Коммерческое название : Dolby Digital
Идентификатор кодека : A_AC3
Продолжительность : 1 ч. 28 м.
Вид битрейта : Постоянный
Битрейт : 192 Кбит/сек
Каналы : 2 канала
ChannelLayout : L R
Частота : 48,0 КГц
Частота кадров : 31,250 кадров/сек (1536 SPF)
Битовая глубина : 16 бит
Метод сжатия : С потерями
Размер потока : 121 Мбайт (2%)
Заголовок : Антон Алексеев
Язык : Russian
ServiceKind/String : Complete Main
Default : Нет
Forced : Нет

Аудио #4
Идентификатор : 5
Формат : AC-3
Формат/Информация : Audio Coding 3
Коммерческое название : Dolby Digital
Идентификатор кодека : A_AC3
Продолжительность : 1 ч. 28 м.
Вид битрейта : Постоянный
Битрейт : 192 Кбит/сек
Каналы : 2 канала
ChannelLayout : L R
Частота : 48,0 КГц
Частота кадров : 31,250 кадров/сек (1536 SPF)
Битовая глубина : 16 бит
Метод сжатия : С потерями
Размер потока : 121 Мбайт (2%)
Заголовок : Константин Дьяконов
Язык : Russian
ServiceKind/String : Complete Main
Default : Нет
Forced : Нет

Аудио #5
Идентификатор : 6
Формат : AC-3
Формат/Информация : Audio Coding 3
Коммерческое название : Dolby Digital
Идентификатор кодека : A_AC3
Продолжительность : 1 ч. 28 м.
Вид битрейта : Постоянный
Битрейт : 640 Кбит/сек
Каналы : 2 канала
ChannelLayout : L R
Частота : 48,0 КГц
Частота кадров : 31,250 кадров/сек (1536 SPF)
Битовая глубина : 16 бит
Метод сжатия : С потерями
Размер потока : 404 Мбайт (8%)
Заголовок : original
Язык : Spanish
ServiceKind/String : Complete Main
Default : Нет
Forced : Нет

Текст
Идентификатор : 7
Формат : UTF-8
Идентификатор кодека : S_TEXT/UTF8
Идентификатор кодека/Информация : UTF-8 Plain Text
Продолжительность : 1 ч. 25 м.
Битрейт : 125 бит/сек
ElementCount : 1190
Размер потока : 78,8 Кбайт (0%)
Заголовок : русские
Язык : Russian
Default : Нет
Forced : Нет

Меню
00:00:00.000 : :Chapter 1
00:10:37.375 : :Chapter 2
00:22:55.708 : :Chapter 3
00:36:23.916 : :Chapter 4
00:46:45.875 : :Chapter 5
00:57:29.000 : :Chapter 6
01:03:47.541 : :Chapter 7
01:17:44.875 : :Chapter 8
pb.wtf



Скачать Женщины на грани нервного срыва через торрент https://c.radikal.ru/c07/1906/71/bc9c91184fda.jpg Скачать фильм Женщины на грани нервного срыва через торрент бесплантно в хорошем качестве О фильме: Главную героиню Пепу Маркос бросает любовник Иван. В попытках найти его, чтобы выяснить причину ухода, ей приходится вступить в ... 5 10 1
Торрент: Зарегистрирован [2019-06-13 06:36] · скачан: 8 раз
Статус: √ проверено
Размер: 4.9 GB
Как cкачать? Как скачать Женщины на грани нервного срыва через торрент | qTorrent

% Раздел Тема Автор DL S | L
Фильмы [HD 720p, 1080p] (Хороший звук DUB, MVO) [ 11.34 GB ] Женщины на грани нервного срыва / Mujeres al borde de un ataque de nervios [1988 BDRip 1080p by msltel] 2 x MVO 2 x AVO msltel Скачать
1 | 0


>> Регистрируемся здесь <<






Отзывы и комментарии о схеме читаем и пишем здесь: ---> Отзывы и комментарии о схеме

Новые благодарочки в телеграм довольных пользователей:
скриншот   скриншот   скриншот   скриншот   скриншот
    Дорогой пользователь! Огромная просьба, поблагодарите релизера, оцените раздачу и оставьте свои комментарий, если Вы скачали Женщины на грани нервного срыва через торрент бесплатно! Внесите свою лепту в развитие PiratBit!
    Комментировать посты могут только пользователи прошедшие не сложную регистрацию
    Показать сообщения:    

    Женщины на грани нервного срыва через торрент
    Скачать бесплатно Женщины на грани нервного срыва
    Женщины на грани нервного срыва скачать торрент
    Женщины на грани нервного срыва смотреть онлайн
    Cкачать фильм Женщины на грани нервного срыва бесплатно
    Женщины на грани нервного срыва скачать торрент в хорошем качестве
    Женщины на грани нервного срыва смотреть онлайн бесплатно в хорошем качестве


    Вы не можете начинать темы
    Вы не можете отвечать на сообщения
    Вы не можете редактировать свои сообщения
    Вы не можете удалять свои сообщения
    Вы не можете голосовать в опросах
    Вы не можете прикреплять файлы к сообщениям
    Вы можете скачивать файлы