MEGA SALE -50% FORZA HORIZON 4 ULTIMATE+ВСЕ DLC+ОНЛАЙН всего за 599р. 299 руб. (супер цена). Внимание количество ограничено!!!

iTunes

1+1

iTunes

мы

iTunes

1

iTunes

Чернобыль

1 сезон

Ральф против интернета

Лицензия

ПШазам

Лицензия

Игра престолов

Лицензия

30
pack

ВАЖНО

!!Акция!!

Alien_RageХит недели

RePack

Resident Evil 21

ИГРА 18+

pack

RePack

Metro:Exodus

!!Акция!!

Alien_Rage

RePack

fifa19

RePack

Assassins Creed: Odyssey

RePack

NEED FOR SPEED™ PAYBACK

3 сезон

9 сезон

Бесстыжие 9 сезон

Все сериалы

все сериалы на PB.wtf

RePack

FAR CRY 5
Ребята, катастрофически не хватает 7730р. для оплаты серверов за ИЮЛЬ (всвязи с блокировками трафик упал в 3 раза), 1-2р., выручайте.
  

Парк культуры и отдыха / Adventureland (Грег Моттола) [2009, драма, мелодрама, комедия, BDRip 1080p by msltel] 2 x MVO pb.wtf

Парк культуры и отдыха через торрент pb.wtf

Размер: 13.96 GB | Добавлен: 2 мес. 7 д. назад | Торрент скачан:9 раз
Скачать  

13-06-2019 07:12 Парк культуры и отдыха Скачать торрент  

Название: Парк культуры и отдыха
Оригинальное название: Adventureland
Год выпуска: 2009
Страна: США
Жанр: драма, мелодрама, комедия
Продолжительность: 01:46:54
Перевод: закадровый многоголосый

Режиссер: Грег Моттола
В ролях: Джесси Айзенберг, Кристен Стюарт, Билл Хэйдер, Райан Рейнольдс, Майкл Зеген, Райан МакФарланд, Джек Гилпин, Уэнди Мэлик, Мэтт Буш, Стивен Маст, Кристен Уиг, Маргарита Левиева

О фильме: Из-за финансовых трудностей Джеймсу Бреннану приходится отменить своё летнее путешествие, о котором он так давно мечтал. Чтобы заработать хоть немного денег, он устраивается в местный парк аттракционов на нудную и низкооплачиваемую работу. Но однажды в жизни Джеймса всё меняется, и это лето превращается в самое яркое событие в жизни юноши...



Качество: BDRip 1080p
Формат: MKV
Видео: MPEG-4 AVC, 16.5 Mбит/с, 1920x1036, 23.976 кадр/с
Аудио 1: русский, AC3, 320 kbps, 2 ch, 48 kHz [закадровый многоголосый, Лицензия]
Аудио 2: русский, AC3, 384 kbps, 6 ch, 48 kHz [закадровый многоголосый]
Аудио 3: английский, DTS, 1509 kbps, 6 ch, 48 kHz [оригинал]
Субтитры 1: русские
Субтитры 2: английские
Главы/чаптеры
Общее
Уникальный идентификатор : 197400382289751846444403624116632966096 (0x9481EE44399EC4A29FA9B5D39BE053D0)
Полное имя : D:\Video\Парк культуры и отдыха.2009.BDRip 1080p by msltel.mkv
Формат : Matroska
Версия формата : Version 4
Размер файла : 14,0 Гбайт
Продолжительность : 1 ч. 46 м.
Общий поток : 18,7 Мбит/сек
Название фильма : Rip by msltel
Дата кодирования : UTC 2019-06-13 05:59:19
Программа кодирования : mkvmerge v8.2.0 ('World of Adventure') 64bit
Библиотека кодирования : libebml v1.3.1 + libmatroska v1.4.2

Видео
Идентификатор : 1
Формат : AVC
Формат/Информация : Advanced Video Codec
Профиль формата : High@L4.1
Настройки формата : CABAC / 4 Ref Frames
Параметр CABAC формата : Да
Параметр RefFrames формата : 4 кадра
Идентификатор кодека : V_MPEG4/ISO/AVC
Продолжительность : 1 ч. 46 м.
Битрейт : 16,5 Мбит/сек
Ширина : 1920 пикселей
Высота : 1036 пикселей
Соотношение сторон : 1,85:1
Режим частоты кадров : Постоянный
Частота кадров : 23,976 (24000/1001) кадра/сек
Цветовое пространство : YUV
Субдискретизация насыщенности : 4:2:0
Битовая глубина : 8 бит
Тип развёртки : Прогрессивная
Бит/(Пиксели*Кадры) : 0.346
Размер потока : 12,3 Гбайт (88%)
Библиотека кодирования : x264 core 157 r2935 545de2f
Настройки программы : cabac=1 / ref=4 / deblock=1:-2:-2 / analyse=0x3:0x113 / me=umh / subme=11 / psy=1 / psy_rd=1.00:0.15 / mixed_ref=1 / me_range=32 / chroma_me=1 / trellis=2 / 8x8dct=1 / cqm=0 / deadzone=21,11 / fast_pskip=0 / chroma_qp_offset=-3 / threads=6 / lookahead_threads=1 / sliced_threads=0 / nr=0 / decimate=1 / interlaced=0 / bluray_compat=0 / constrained_intra=0 / bframes=9 / b_pyramid=2 / b_adapt=2 / b_bias=0 / direct=1 / weightb=1 / open_gop=0 / weightp=2 / keyint=230 / keyint_min=23 / scenecut=40 / intra_refresh=0 / rc_lookahead=40 / rc=crf / mbtree=1 / crf=19.7 / qcomp=0.60 / qpmin=0 / qpmax=69 / qpstep=4 / vbv_maxrate=50000 / vbv_bufsize=62500 / crf_max=0.0 / nal_hrd=none / filler=0 / ip_ratio=1.40 / aq=1:1.00
Язык : English
Default : Да
Forced : Нет

Аудио #1
Идентификатор : 2
Формат : AC-3
Формат/Информация : Audio Coding 3
Коммерческое название : Dolby Digital
Идентификатор кодека : A_AC3
Продолжительность : 1 ч. 46 м.
Вид битрейта : Постоянный
Битрейт : 320 Кбит/сек
Каналы : 2 канала
ChannelLayout : L R
Частота : 48,0 КГц
Частота кадров : 31,250 кадров/сек (1536 SPF)
Битовая глубина : 16 бит
Метод сжатия : С потерями
Размер потока : 245 Мбайт (2%)
Заголовок : MVO Лицензия
Язык : Russian
ServiceKind/String : Complete Main
Default : Да
Forced : Нет

Аудио #2
Идентификатор : 3
Формат : AC-3
Формат/Информация : Audio Coding 3
Коммерческое название : Dolby Digital
Идентификатор кодека : A_AC3
Продолжительность : 1 ч. 46 м.
Вид битрейта : Постоянный
Битрейт : 384 Кбит/сек
Каналы : 6 каналов
ChannelLayout : L R C LFE Ls Rs
Частота : 48,0 КГц
Частота кадров : 31,250 кадров/сек (1536 SPF)
Битовая глубина : 16 бит
Метод сжатия : С потерями
Размер потока : 294 Мбайт (2%)
Заголовок : MVO
Язык : Russian
ServiceKind/String : Complete Main
Default : Нет
Forced : Нет

Аудио #3
Идентификатор : 4
Формат : DTS
Формат/Информация : Digital Theater Systems
Идентификатор кодека : A_DTS
Продолжительность : 1 ч. 46 м.
Вид битрейта : Постоянный
Битрейт : 1509 Кбит/сек
Каналы : 6 каналов
ChannelLayout : C L R Ls Rs LFE
Частота : 48,0 КГц
Частота кадров : 93,750 кадра/сек (512 SPF)
Битовая глубина : 24 бит
Метод сжатия : С потерями
Размер потока : 1,13 Гбайт (8%)
Заголовок : original
Язык : English
Default : Нет
Forced : Нет

Текст #1
Идентификатор : 5
Формат : UTF-8
Идентификатор кодека : S_TEXT/UTF8
Идентификатор кодека/Информация : UTF-8 Plain Text
Продолжительность : 1 ч. 43 м.
Битрейт : 109 бит/сек
ElementCount : 1329
Размер потока : 82,7 Кбайт (0%)
Заголовок : русские
Язык : Russian
Default : Нет
Forced : Нет

Текст #2
Идентификатор : 6
Формат : UTF-8
Идентификатор кодека : S_TEXT/UTF8
Идентификатор кодека/Информация : UTF-8 Plain Text
Продолжительность : 1 ч. 43 м.
Битрейт : 74 бит/сек
ElementCount : 1512
Размер потока : 56,7 Кбайт (0%)
Заголовок : английские
Язык : English
Default : Нет
Forced : Нет

Меню
00:00:00.000 : en:Happy Graduation
00:05:06.181 : en:You Look Like A Games Guy
00:11:02.370 : en:Losing The Giant-Ass Panda
00:19:45.267 : en:Em's Party
00:27:11.255 : en:Lisa P Is Back
00:33:39.517 : en:Going Somewhere
00:38:24.719 : en:Love Makes Things Transform
00:45:25.932 : en:Your Boyfriend's In Love
00:48:38.457 : en:Taking Things Slow
00:52:14.048 : en:Meeting Needs
00:59:08.628 : en:Sailboats And Speedboats
01:04:59.979 : en:Bobby To The Rescue
01:11:25.698 : en:Em-Appreciation
01:19:52.621 : en:The Secret's Out
01:24:34.361 : en:Mostly You Just Make Me Mad
01:29:47.924 : en:The Last Weekend
01:34:10.520 : en:Seeing Differently
01:39:56.407 : en:End Credits
pb.wtf



Скачать Парк культуры и отдыха через торрент https://d.radikal.ru/d13/1906/d4/e19329114d6f.jpg Скачать фильм Парк культуры и отдыха через торрент бесплантно в хорошем качестве О фильме: Из-за финансовых трудностей Джеймсу Бреннану приходится отменить своё летнее путешествие, о котором он так давно мечтал. Чтобы ... 5 10 1
Торрент: Зарегистрирован [2019-06-13 07:12] · скачан: 9 раз
Статус: √ проверено
Размер: 13.96 GB
Как cкачать? Как скачать Парк культуры и отдыха через торрент | qTorrent

% Раздел Тема Автор DL S | L
Фильмы [HD 720p, 1080p] (Хороший звук DUB, MVO) [ 5.46 GB ] Парк культуры и отдыха / Adventureland [2009 BDRip 720p by msltel] 2 x MVO msltel Скачать
2 | 0


>> Регистрируемся здесь <<






Отзывы и комментарии о схеме читаем и пишем здесь: ---> Отзывы и комментарии о схеме

Новые благодарочки в телеграм довольных пользователей:
скриншот   скриншот   скриншот   скриншот   скриншот
    Дорогой пользователь! Огромная просьба, поблагодарите релизера, оцените раздачу и оставьте свои комментарий, если Вы скачали Парк культуры и отдыха через торрент бесплатно! Внесите свою лепту в развитие PiratBit!
    Комментировать посты могут только пользователи прошедшие не сложную регистрацию
    Показать сообщения:    

    Парк культуры и отдыха через торрент
    Скачать бесплатно Парк культуры и отдыха
    Парк культуры и отдыха скачать торрент
    Парк культуры и отдыха смотреть онлайн
    Cкачать фильм Парк культуры и отдыха бесплатно
    Парк культуры и отдыха скачать торрент в хорошем качестве
    Парк культуры и отдыха смотреть онлайн бесплатно в хорошем качестве


    Вы не можете начинать темы
    Вы не можете отвечать на сообщения
    Вы не можете редактировать свои сообщения
    Вы не можете удалять свои сообщения
    Вы не можете голосовать в опросах
    Вы не можете прикреплять файлы к сообщениям
    Вы можете скачивать файлы