MEGA SALE -50% FORZA HORIZON 4 ULTIMATE+ВСЕ DLC+ОНЛАЙН всего за 599р. 299 руб. (супер цена). Внимание количество ограничено!!!

iTunes

1+1

iTunes

мы

iTunes

1

iTunes

Чернобыль

iTunes

Ральф против интернета

Лицензия

ПШазам

Лицензия

Игра престолов

Лицензия

30
pack

ВАЖНО

!!Акция!!

Alien_RageХит недели

RePack

Resident Evil 21

ИГРА 18+

pack

RePack

Metro:Exodus

!!Акция!!

Alien_Rage

RePack

fifa19

RePack

Assassins Creed: Odyssey

RePack

NEED FOR SPEED™ PAYBACK

3 сезон

9 сезон

Бесстыжие 9 сезон

Все сериалы

все сериалы на PB.wtf

RePack

FAR CRY 5
Ребята, катастрофически не хватает 7730р. для оплаты серверов за АВГУСТ (всвязи с блокировками трафик упал в 3 раза), 1-2р., выручайте.
  

Посредник / The InBetween / Сезон: 1 / Серии: 1-10 из 10 (Руба Надда, П.Дж. Пеше, Шарлотта Зилинг) [2019, Фантастика, драма WEBRip] [MVO] (NewStudio) pb.wtf

Посредник через торрент pb.wtf

Раздают: 1 [ 0 KB/s ] Качают: 2 [ 0 KB/s ]
Размер: 5.28 GB | Добавлен: 26 д. назад | Торрент скачан:15 раз
Скачать  

13-06-2019 08:05 Посредник Скачать торрент  

ПОСРЕДНИКThe InBetween
Год выпуска: 2019
Страна: США, Великобритания
Жанр: Фантастика, драма
Продолжительность:~ 00:42:00
Перевод: Профессиональный (многоголосый закадровый) NewStudiо
Режиссёр: Руба Надда, П.Дж. Пеше, Шарлотта Зилинг

В ролях: Харриет Дайер, Пол Блекторн, Джастин Корнвэлл, Синди Луна, Андрес Джозеф, Майкл Б. Сильвер, Чад Джеймс Бьюкэнэн, Шон Болджер, Сара Эбботт, Энн-Мари Джонсон
Описание: Кэсси Бишоп (Харриет Дайер) родилась с даром, хотя его можно назвать и проклятием. Она видит мёртвых и общается с ними, помогая с незаконченными делами… нравится ей это или нет. Когда её давний друг детектив Том Хакетт (Пол Блекторн) и его новый напарник, бывший агент ФБР Дэмиен Асанте (Джастин Корнвэлл), нуждаются в помощи с мрачно озадачивающим убийством, Кэсси соглашается использовать свои способности. Вопреки нежеланию, она возможно найдёт способ держать своих демонов в узде, раскрывая самые сложные дела города.
rating


Раздача -- JuSSiKa

Качество: WEBRip
Формат: AVI
Видео: XviD, 720x400 (16:9), 23,976 fps, ~1500 kbps
Аудио Rus.: MP3, 48 kHz, 2 ch, 128 kbps
Аудио Eng.: MP3, 48 kHz, 2 ch, 128 kbps
Субтитры: отсутствуют
Полное имя : The.InBetween.S01.WEBRip.RusEng.NewStudio\The.InBetween.S01E01.WEBRip.RusEng.NewStudio.JuSSiKa.avi
Формат : AVI
Формат/Информация : Audio Video Interleave
Размер файла : 540 Мбайт
Продолжительность : 42 м. 38 с.
Общий поток : 1771 Кбит/сек
Программа кодирования : VirtualDubMod 1.5.10.3 (build 2550/release)
Библиотека кодирования : VirtualDubMod build 2550/release

Видео
Идентификатор : 0
Формат : MPEG-4 Visual
Профиль формата : Advanced Simple@L5
Настройки формата : BVOP1
Параметр BVOP формата : 1
Параметр QPel формата : Нет
Параметр GMC формата : Без точки перехода
Параметр матрицы формата : Default (H.263)
Идентификатор кодека : XVID
Идентификатор кодека/Подсказка : XviD
Продолжительность : 42 м. 38 с.
Битрейт : 1501 Кбит/сек
Ширина : 720 пикселей
Высота : 400 пикселей
Соотношение сторон : 16:9
Частота кадров : 23,976 (24000/1001) кадра/сек
Цветовое пространство : YUV
Субдискретизация насыщенности : 4:2:0
Битовая глубина : 8 бит
Тип развёртки : Прогрессивная
Метод сжатия : С потерями
Бит/(Пиксели*Кадры) : 0.217
Размер потока : 458 Мбайт (85%)
Библиотека кодирования : XviD 1.2.1 (UTC 2008-12-04)

Аудио #1
Идентификатор : 1
Формат : MPEG Audio
Версия формата : Version 1
Профиль формата : Layer 3
Настройки формата : Joint stereo / MS Stereo
Режим : Joint stereo
Расширение режима : MS Stereo
Идентификатор кодека : 55
Идентификатор кодека/Подсказка : MP3
Продолжительность : 42 м. 38 с.
Вид битрейта : Постоянный
Битрейт : 128 Кбит/сек
Каналы : 2 канала
Частота : 48,0 КГц
Метод сжатия : С потерями
Размер потока : 39,0 Мбайт (7%)
Выравнивание : Соединение по промежуткам
Продолжительность промежутка : 42 мс. (1,00 видеокадр)
Время предзагрузки промежутка : 504 мс.

Аудио #2
Идентификатор : 2
Формат : MPEG Audio
Версия формата : Version 1
Профиль формата : Layer 3
Настройки формата : Joint stereo / MS Stereo
Режим : Joint stereo
Расширение режима : MS Stereo
Идентификатор кодека : 55
Идентификатор кодека/Подсказка : MP3
Продолжительность : 42 м. 38 с.
Вид битрейта : Постоянный
Битрейт : 128 Кбит/сек
Каналы : 2 канала
Частота : 48,0 КГц
Метод сжатия : С потерями
Размер потока : 39,0 Мбайт (7%)
Выравнивание : Соединение по промежуткам
Продолжительность промежутка : 42 мс. (1,00 видеокадр)
Время предзагрузки промежутка : 504 мс.
скриншот  скриншот  скриншот  
Внимание! Раздача ведётся путём добавления новых серий; при каждом добавлении создаётся новый торрент. Чтобы начать докачку новой серии, пользователям необходимо сделать следующее:
(1) остановить скачивание,
(2) удалить старый торрент у себя из клиента (старые серии удалять не надо),
(3) скачать новый торрент и запустить его у себя в клиенте вместо старого, при этом указать клиенту путь в старую папку куда и должно происходить скачивание новых серий.

Ваш клиент при этом должен произвести хеширование (проверку) старой папки (если не производит сам - помогите ему сделать это), и будет докачивать только те серии которых у вас ещё нет. Старые серии при этом не удаляются, а продолжают раздаваться!

Eсли вы уже удалили старые серии, то предотвратить повторную закачку старых серий можно, отжав галочку в соответствующих местах при запуске нового торрента. По возможности, желательно не удалять старые серии как можно дольше чтобы релизёр не столько продолжал раздавать старые серии, а смог сконцентрироваться на новых.
pb.wtf



Скачать Посредник через торрент https://i106.fastpic.ru/big/2019/0612/9a/6ff833efd91723872b12998ec96da89a.png Скачать фильм Посредник через торрент бесплантно в хорошем качестве Описание: Кэсси Бишоп (Харриет Дайер) родилась с даром, хотя его можно назвать и проклятием. Она видит мёртвых и общается с ними, помогая с ... 9.1 10 7
Торрент: Зарегистрирован [2019-08-20 10:47] · скачан: 15 раз
Статус: √ проверено
Размер: 5.28 GB
Как cкачать? Как скачать Посредник через торрент | qTorrent

% Раздел Тема Автор DL S | L
Зарубежные сериалы [ 17.18 GB ] Посредник / Проводник / The InBetween / Сезон: 1 / Серии: 1-10 из 10 [2019 WEB-DL 720p] MVO [TVShows] bober100 Скачать
1 | 0
Зарубежные сериалы [ 7.13 GB ] Посредник / Проводник / The InBetween / Сезон: 1 / Серии: 1-10 из 10 [2019 WEB-DLRip] MVO [TVShows] bober100 Скачать
2 | 0
Зарубежные сериалы [ 31.17 GB ] Посредник / Проводник / The InBetween / Сезон: 1 / Серии: 1-10 из 10 [2019 WEB-DL 1080p] MVO [TVShows] bober100 Скачать
2 | 0


>> Регистрируемся здесь <<






Отзывы и комментарии о схеме читаем и пишем здесь: ---> Отзывы и комментарии о схеме

Новые благодарочки в телеграм довольных пользователей:
скриншот   скриншот   скриншот   скриншот   скриншот
    Дорогой пользователь! Огромная просьба, поблагодарите релизера, оцените раздачу и оставьте свои комментарий, если Вы скачали Посредник через торрент бесплатно! Внесите свою лепту в развитие PiratBit!
    Комментировать посты могут только пользователи прошедшие не сложную регистрацию
    Показать сообщения:    

    Посредник через торрент
    Скачать бесплатно Посредник
    Посредник скачать торрент
    Посредник смотреть онлайн
    Cкачать фильм Посредник бесплатно
    Посредник скачать торрент в хорошем качестве
    Посредник смотреть онлайн бесплатно в хорошем качестве


    Вы не можете начинать темы
    Вы не можете отвечать на сообщения
    Вы не можете редактировать свои сообщения
    Вы не можете удалять свои сообщения
    Вы не можете голосовать в опросах
    Вы не можете прикреплять файлы к сообщениям
    Вы можете скачивать файлы