Мега распродажа FORZA HORIZON 4 ULTIMATE+ВСЕ DLC+ОНЛАЙН всего за 499р. 349 руб. (супер цена). Внимание количество ограничено!!!

Лицензия

30

iTunes

мы

iTunes

1

1 сезон

Чернобыль

1 сезон

Ральф против интернета

MVO

Покемон. Детектив Пикачу

8 сезон

Игра престолов

iTunes

1+1

ИГРА 18+

pack

ВАЖНО

!!Акция!!

Alien_RageХит недели

RePack

Resident Evil 21
pack

RePack

Metro:Exodus

!!Акция!!

Alien_Rage

RePack

fifa19

RePack

Assassins Creed: Odyssey

RePack

NEED FOR SPEED™ PAYBACK

3 сезон

9 сезон

Бесстыжие 9 сезон

Все сериалы

все сериалы на PB.wtf

RePack

FAR CRY 5
Ребята, катастрофически не хватает 2730р. для оплаты серверов за МАЙ (всвязи с блокировками трафик упал в 3 раза), 1-2р., выручайте.
  

Благослови этот бардак / Bless This Mess / Сезон: 1 / Серии: 1-5 из 6 (Аня Адамс, Лэйк Белл, Кевин Брэй) [2019, комедия, WEB-DLRip] [MVO] (NewStudio) pb.wtf

Благослови этот бардак через торрент pb.wtf

Раздают: 1 [ 32 KB/s ]
Размер: 1.36 GB | Добавлен: 3 д. назад | Торрент скачан:8 раз
Скачать  

13-06-2019 08:11 Благослови этот бардак Скачать торрент  

Благослови этот бардак / Bless This Mess

Год выпуска: 2019
Страна: США
Жанр: комедия
Продолжительность: ~ 00:22:00
Перевод: Профессиональный (многоголосый закадровый) | NewStudio
Субтитры: нет

Режиссёр: Аня Адамс, Лэйк Белл, Кевин Брэй
В ролях:
Дэкс Шепард, Лэйк Белл, ДжиТи Нил, Пэм Гриер, Эд Бегли мл, Дэвид Кокнер, Леннон Парэм, Сьюзи Эссман, Нэнси Ленехан, Джим О’Хейр

Описание:
Совсем недавно сыгравшие свадьбу Рио и Майк решают выбраться из шумного мегаполиса, чтобы пожить спокойной, тихой и куда более простой жизнью где-нибудь в глубинке. Однако добравшись до своего фермерского домика в Небраске, новобрачные осознают, что их представления о сельской идиллии совершенно не совпадают с реальностью.

Качество: WEB-DLRip
Формат: AVI
Видео кодек: XviD
Видео: 720x400 (1.80:1), 23.976 fps, XviD build 73 ~1600 kbps avg, 0.23 bit/pixel
Аудио Rus: 48 kHz, AC3 Dolby Digital, 2/0 (L,R) ch, ~192 kbps

Рип: Ruddle
Работа со звуком: Atla22
Реклама отсутствует

Общее
Полное имя : D:\Bless This Mess Season 1 WEB-DLRip\Bless.This.Mess.s01e01.WEB-DLRip.RGzsRutracker.avi
Формат : AVI
Формат/Информация : Audio Video Interleave
Размер файла : 278 Мбайт
Продолжительность : 21 м. 33 с.
Общий поток : 1801 Кбит/сек
Программа кодирования : VirtualDubMod 1.5.10.3 | www.virtualdub-fr.org || (build 2550/release)
Библиотека кодирования : VirtualDubMod build 2550/release

Видео
Идентификатор : 0
Формат : MPEG-4 Visual
Профиль формата : Advanced Simple@L5
Настройки формата : BVOP2 / Custom Matrix
Параметр BVOP формата : 2
Параметр QPel формата : Нет
Параметр GMC формата : Без точки перехода
Параметр матрицы формата : Выборочная
Идентификатор кодека : XVID
Идентификатор кодека/Подсказка : XviD
Продолжительность : 21 м. 33 с.
Битрейт : 1600 Кбит/сек
Ширина : 720 пикселей
Высота : 400 пикселей
Соотношение сторон : 16:9
Частота кадров : 23,976 (24000/1001) кадра/сек
Цветовое пространство : YUV
Субдискретизация насыщенности : 4:2:0
Битовая глубина : 8 бит
Тип развёртки : Прогрессивная
Метод сжатия : С потерями
Бит/(Пиксели*Кадры) : 0.232
Размер потока : 247 Мбайт (89%)
Библиотека кодирования : XviD 73

Аудио
Идентификатор : 1
Формат : AC-3
Формат/Информация : Audio Coding 3
Идентификатор кодека : 2000
Продолжительность : 21 м. 33 с.
Вид битрейта : Постоянный
Битрейт : 192 Кбит/сек
Каналы : 2 канала
Расположение каналов : Front: L R
Частота : 48,0 КГц
Частота кадров : 31,250 кадров/сек (1536 SPF)
Битовая глубина : 16 бит
Метод сжатия : С потерями
Размер потока : 29,6 Мбайт (11%)
Выравнивание : Разделение по промежуткам
Продолжительность промежутка : 42 мс. (1,00 видеокадр)
Время предзагрузки промежутка : 500 мс.
ServiceKind/String : Complete Main
скриншот  скриншот  скриншот  
Внимание! Раздача ведётся путём добавления новых серий; при каждом добавлении создётся новый торрент. Чтобы начать докачку новой серии, пользователям необходимо сделать следующее: (1) остановить скачивание, (2) удалить старый торрент у себя из клиента (старые серии удалять не надо), (3) скачать новый торрент и запустить его у себя в клиенте вместо старого, при этом указать клиенту путь в старую папку куда и должно происходить скачивание новых серий.

Ваш клиент при этом должен произвести хеширование (проверку) старой папки (если не производит сам - помогите ему сделать это), и будет докачивать только те серии которых у вас ещё нет. Старые серии при этом не удаляются, а продолжают раздаваться!

Eсли вы уже удалили старые серии, то предотвратить повторную закачку старых серий можно, отжав галочку в соответсвующих местах при запуске нового торрента.
[/url]
pb.wtf



Скачать Благослови этот бардак через торрент https://i106.fastpic.ru/big/2019/0613/ab/3767781dd089435d635af6c6d2ad9dab.jpg Скачать фильм Благослови этот бардак через торрент бесплантно в хорошем качестве Описание:Совсем недавно сыгравшие свадьбу Рио и Майк решают выбраться из шумного мегаполиса, чтобы пожить спокойной, тихой и куда более ... 10 10 1
Торрент: Зарегистрирован [2019-06-13 08:11] · скачан: 8 раз
Статус: √ проверено
Размер: 1.36 GB
Как cкачать? Как скачать Благослови этот бардак через торрент | qTorrent


>> Регистрируемся здесь <<






Отзывы и комментарии о схеме читаем и пишем здесь: ---> Отзывы и комментарии о схеме

Новые благодарочки в телеграм довольных пользователей:
скриншот   скриншот   скриншот   скриншот   скриншот
    Дорогой пользователь! Огромная просьба, поблагодарите релизера, оцените раздачу и оставьте свои комментарий, если Вы скачали Благослови этот бардак через торрент бесплатно! Внесите свою лепту в развитие PiratBit!
    Комментировать посты могут только пользователи прошедшие не сложную регистрацию
    Показать сообщения:    

    Благослови этот бардак через торрент
    Скачать бесплатно Благослови этот бардак
    Благослови этот бардак скачать торрент
    Благослови этот бардак смотреть онлайн
    Cкачать фильм Благослови этот бардак бесплатно
    Благослови этот бардак скачать торрент в хорошем качестве
    Благослови этот бардак смотреть онлайн бесплатно в хорошем качестве


    Вы не можете начинать темы
    Вы не можете отвечать на сообщения
    Вы не можете редактировать свои сообщения
    Вы не можете удалять свои сообщения
    Вы не можете голосовать в опросах
    Вы не можете прикреплять файлы к сообщениям
    Вы можете скачивать файлы