MEGA SALE -50% FORZA HORIZON 4 ULTIMATE+ВСЕ DLC+ОНЛАЙН всего за 599р. 299 руб. (супер цена). Внимание количество ограничено!!!

iTunes

1+1

iTunes

мы

iTunes

1

iTunes

Чернобыль

iTunes

Ральф против интернета

Лицензия

ПШазам

Лицензия

Игра престолов

Лицензия

30
pack

ВАЖНО

!!Акция!!

Alien_RageХит недели

RePack

Resident Evil 21

ИГРА 18+

pack

RePack

Metro:Exodus

!!Акция!!

Alien_Rage

RePack

fifa19

RePack

Assassins Creed: Odyssey

RePack

NEED FOR SPEED™ PAYBACK

3 сезон

9 сезон

Бесстыжие 9 сезон

Все сериалы

все сериалы на PB.wtf

RePack

FAR CRY 5
Ребята, катастрофически не хватает 7730р. для оплаты серверов за АВГУСТ (всвязи с блокировками трафик упал в 3 раза), 1-2р., выручайте.
  

Видок: Охотник на призраков / Видок: Император Парижа / L'Empereur de Paris (Жан-Франсуа Рише) [2018, приключения, история, BDRip 720p] MVO [HDRezka Studio] pb.wtf

Видок: Охотник на призраков через торрент pb.wtf

Раздают: 43 [ 0 KB/s ] Качают: 1 [ 0 KB/s ]
Размер: 5.63 GB | Добавлен: 3 мес. 4 д. назад | Торрент скачан:402 раза
Скачать  

13-06-2019 08:55 Видок: Охотник на призраков Скачать торрент  

Видок: Охотник на призраков / Видок: Император Парижа / L'Empereur de Paris
Год выпуска: 2018
Страна: Франция
Жанр: приключения, история
Продолжительность: 02:00:05
Перевод: Профессиональный (многоголосый) | HDRezka Studio
Субтитры: отсутствуют

Режиссер: Жан-Франсуа Рише

rating

В ролях:

Ольга Куриленко, Венсан Кассель, Фрейя Мавор, Аугуст Диль, Дени Меноше, Дени Лаван, Фабрис Лукини, Уилльям Скьортино, Джеймс Тьерре, Патрик Шене

Описание:

Правдивая история французского преступника XIX века Эжена Франсуа Видока, который переходил из тюрьмы в тюрьму и менял профессию за профессией, пока не нашёл себя на полицейской службе. Он основал и возглавил первый в мире отдел национальной безопасности, где проработал двадцать лет. Выйдя в отставку, Видок стал частным детективом.

Качество: BDRip 720p
Формат: MKV

Видео: AVC, 1280x536 (2.40:1), 23.976 fps ~ 5000 Kbps
Аудио#1: AC3, 48 KHz, 2 ch ~ 192 Kb/s (русский)
Аудио#2: DTS, 48 KHz, 6 ch ~ 1510 Kb/s (французский)
скриншот  скриншот  скриншот  скриншот  скриншот  

Общее
Уникальный идентификатор : 192186062220649634845937461633630671182 (0x9095B0703A57414FAD2EBE307571114E)
Полное имя : Q:TorFL.Empereur.de.Paris.2018.720p.BluRay-HuN-MaTeK.mkv
Формат : Matroska
Версия формата : Version 2
Размер файла : 5,63 Гбайт
Продолжительность : 2 ч. 0 м.
Общий поток : 6717 Кбит/сек
Дата кодирования : UTC 2019-06-13 06:52:29
Программа кодирования : mkvmerge v5.4.0 ('Piper') built on Mar 10 2012 13:34:39
Библиотека кодирования : libebml v1.2.3 + libmatroska v1.3.0
DURATION : 01:59:01.801000000
NUMBER_OF_FRAMES : 2818
NUMBER_OF_BYTES : 21229383
_STATISTICS_WRITING_APP : mkvmerge v20.0.0 ('I Am The Sun') 64-bit
_STATISTICS_WRITING_DATE_UTC : 2019-06-12 16:52:46
_STATISTICS_TAGS : BPS DURATION NUMBER_OF_FRAMES NUMBER_OF_BYTES

Видео
Идентификатор : 1
Формат : AVC
Формат/Информация : Advanced Video Codec
Профиль формата : High@L4.1
Параметр CABAC формата : Да
Параметр ReFrames формата : 8 кадров
Идентификатор кодека : V_MPEG4/ISO/AVC
Продолжительность : 2 ч. 0 м.
Битрейт : 5007 Кбит/сек
Ширина : 1280 пикселей
Высота : 536 пикселей
Соотношение сторон : 2,40:1
Частота кадров : 23,976 кадра/сек
Цветовое пространство : YUV
Субдискретизация насыщенности : 4:2:0
Битовая глубина : 8 бит
Тип развёртки : Прогрессивная
Бит/(Пиксели*Кадры) : 0.304
Размер потока : 4,09 Гбайт (73%)
Библиотека кодирования : x264 core 155 r2901 7d0ff22
Настройки программы : cabac=1 / ref=8 / deblock=1:0:0 / analyse=0x3:0x113 / me=umh / subme=8 / psy=1 / psy_rd=1.00:0.00 / mixed_ref=1 / me_range=16 / chroma_me=1 / trellis=2 / 8x8dct=1 / cqm=0 / deadzone=21,11 / fast_pskip=1 / chroma_qp_offset=-2 / threads=17 / lookahead_threads=4 / sliced_threads=0 / nr=0 / decimate=1 / interlaced=0 / bluray_compat=0 / constrained_intra=0 / bframes=3 / b_pyramid=2 / b_adapt=2 / b_bias=0 / direct=3 / weightb=1 / open_gop=0 / weightp=2 / keyint=240 / keyint_min=24 / scenecut=40 / intra_refresh=0 / rc_lookahead=60 / rc=2pass / mbtree=1 / bitrate=5007 / ratetol=1.0 / qcomp=0.60 / qpmin=0 / qpmax=69 / qpstep=4 / cplxblur=20.0 / qblur=0.5 / ip_ratio=1.40 / aq=1:1.00
Язык : French
Default : Да
Forced : Нет
Основные цвета : BT.709-5, BT.1361, IEC 61966-2-4, SMPTE RP177
Характеристики трансфера : BT.709-5, BT.1361
Коэффициенты матрицы : BT.709-5, BT.1361, IEC 61966-2-4 709, SMPTE RP177

Аудио #1
Идентификатор : 2
Формат : AC-3
Формат/Информация : Audio Coding 3
Расширение режима : CM (complete main)
Идентификатор кодека : A_AC3
Продолжительность : 2 ч. 0 м.
Вид битрейта : Постоянный
Битрейт : 192 Кбит/сек
Каналы : 2 канала
Расположение каналов : Front: L R
Частота : 48,0 КГц
Битовая глубина : 16 бит
Метод сжатия : С потерями
Размер потока : 165 Мбайт (3%)
Заголовок : HDrezka Studio
Язык : Russian
Default : Да
Forced : Нет

Аудио #2
Идентификатор : 3
Формат : DTS
Формат/Информация : Digital Theater Systems
Идентификатор кодека : A_DTS
Продолжительность : 2 ч. 0 м.
Вид битрейта : Постоянный
Битрейт : 1510 Кбит/сек
Каналы : 6 каналов
Расположение каналов : Front: L C R, Side: L R, LFE
Частота : 48,0 КГц
Битовая глубина : 24 бит
Метод сжатия : С потерями
Размер потока : 1,27 Гбайт (22%)
Язык : French
Default : Нет
Forced : Нет

Текст #1
Идентификатор : 4
Формат : UTF-8
Идентификатор кодека : S_TEXT/UTF8
Идентификатор кодека/Информация : UTF-8 Plain Text
Язык : English
Default : Нет
Forced : Нет

Текст #2
Идентификатор : 5
Формат : PGS
Режим смешивания : zlib
Идентификатор кодека : S_HDMV/PGS
Идентификатор кодека/Информация : The same subtitle format used on BDs/HD-DVDs
Язык : French
Default : Нет
Forced : Нет

Меню
00:00:00.000 : fr:(01)00:00:00:000
00:10:12.820 : fr:(02)00:10:12:820
00:19:20.492 : fr:(03)00:19:20:492
00:30:27.325 : fr:(04)00:30:27:325
00:41:02.293 : fr:(05)00:41:02:293
00:54:33.019 : fr:(06)00:54:33:019
01:06:07.338 : fr:(07)01:06:07:338
01:15:48.335 : fr:(08)01:15:48:335
01:23:11.778 : fr:(09)01:23:11:778
01:32:59.240 : fr:(10)01:32:59:240
01:42:15.504 : fr:(11)01:42:15:504
01:54:05.213 : fr:(12)01:54:05:213

pb.wtf



Скачать Видок: Охотник на призраков через торрент https://i110.fastpic.ru/big/2019/0613/a2/c0c90a3ba60f00044473efc6ea5e4ea2.jpg Скачать фильм Видок: Охотник на призраков через торрент бесплантно в хорошем качестве Описание: Правдивая история французского преступника XIX века Эжена Франсуа Видока, который переходил из тюрьмы в тюрьму и менял профессию ... 10 10 17
Торрент: Зарегистрирован [2019-06-13 08:55] · скачан: 402 раз
Статус: T временная
Размер: 5.63 GB
Как cкачать? Как скачать Видок: Охотник на призраков через торрент | qTorrent


>> Регистрируемся здесь <<






Отзывы и комментарии о схеме читаем и пишем здесь: ---> Отзывы и комментарии о схеме

Новые благодарочки в телеграм довольных пользователей:
скриншот   скриншот   скриншот   скриншот   скриншот

14-06-2019 01:45 Видок: Охотник на призраков Скачать торрент  

фильм интересный.очень легко смотрится.все снято здорово и красиво.актеры на высоте.всем к просмотру обязательно.pb.wtf



    Дорогой пользователь! Огромная просьба, поблагодарите релизера, оцените раздачу и оставьте свои комментарий, если Вы скачали Видок: Охотник на призраков через торрент бесплатно! Внесите свою лепту в развитие PiratBit!
    Комментировать посты могут только пользователи прошедшие не сложную регистрацию
    Показать сообщения:    

    Видок: Охотник на призраков через торрент
    Скачать бесплатно Видок: Охотник на призраков
    Видок: Охотник на призраков скачать торрент
    Видок: Охотник на призраков смотреть онлайн
    Cкачать фильм Видок: Охотник на призраков бесплатно
    Видок: Охотник на призраков скачать торрент в хорошем качестве
    Видок: Охотник на призраков смотреть онлайн бесплатно в хорошем качестве


    Вы не можете начинать темы
    Вы не можете отвечать на сообщения
    Вы не можете редактировать свои сообщения
    Вы не можете удалять свои сообщения
    Вы не можете голосовать в опросах
    Вы не можете прикреплять файлы к сообщениям
    Вы можете скачивать файлы