2 сезон

iTunes

1 сезон

1

iTunes

iTunes

iTunes

1 сезон

RePack

30

ИГРА 18+

pack

ВАЖНО

!!Акция!!

Alien_RageХит недели

RePack

MK11
pack

Забери бонус

RePack

jed

!!Акция!!

Alien_Rage

RePack

fifa19

RePack

Assassins Creed: Odyssey

RePack

NEED FOR SPEED™ PAYBACK

4 сезон

9 сезон

Бесстыжие 9 сезон

Все сериалы

все сериалы на PB.wtf

RePack

FAR CRY 5
  

Беловодье. Тайна затерянной страны / Сезон: 1 / Серии: 1-12 из 12 (Евгений Бедарев) [2019, Мистика, приключения, фэнтези, WEB-DL 720p] pb.wtf

Беловодье. Тайна затерянной страны через торрент pb.wtf

Размер: 14.82 GB | Добавлен: 1 год 3 мес. назад | Торрент скачан:54 раза
Скачать  

13-06-2019 13:20 Беловодье. Тайна затерянной страны Скачать торрент  

Беловодье. Тайна затерянной страны
Год выпуска: 2019
Страна: Россия
Жанр: Мистика, приключения, фэнтези
Продолжительность: ~ 00:48:00 серия
Перевод: Не требуется
Субтитры: отсутствуют

Режиссер: Евгений Бедарев




В ролях:

Александр Петров (II), Светлана Суханова, Татьяна Орлова, Алексей Васильев (II), Алла Подчуфарова, Юлия Самойленко, Павел Крайнов, Роман Курцын, Марианна Шульц, Залим Мирзоев, Сергей Майоров (III), Любовь Виролайнен, Александр Пальчиков, Екатерина Ефимова, Руслан Спояло, Евгений Морозов, Данила Якушев, Рустам Махмутов, Дарья Макарова, Алёна Ковалёва, Михаил Хмуров, Николай Токарев, Дмитрий Бедарев, Максим Важов, Елена Аросьева

Описание:

Герои самого зрелищного российского фэнтези-сериала «Пока цветет папоротник» возвращаются на экраны в новой полной приключений и волшебства истории «Беловодье. Тайна затерянной страны». Страшная тайна Хранителей открыта. Провал земли в заброшенном горном монастыре освободил силу, которая угрожает всей жизни на Земле. В параллельных мирах развернулась борьба за Влacть, каждый ведет свою смертельную игру, и понять, кто враг, а кто друг невозможно. Остается только один шанс на спасение. Но для последней Надежды нужна крепкая Вера и страстная Любовь.

Качество: WEB-DL 720p
Формат: MKV

Видео: MPEG4 AVC Video, H264, 16:9, 1280x720, 25 fps, ~3400 kbps, 0.149 bit/pixel
Аудио: 48 kHz, AC3 Dolby Digital, 2/0 (L,R) ch, ~192 kbps
скриншот  скриншот  скриншот  скриншот  скриншот  

скриншот  скриншот  скриншот  скриншот  скриншот  

General
Unique ID : 221147753321336498174703437968403934846 (0xA65F820DF66CFC2B9BF07FF845752E7E)
Complete name : D:\Belovode.taina.zateryannoi.strany.2016.WEB-DL.(720p).Getty\Belovode.taina.zateryannoi.strany.e01.2016.WEB-DL.(720p).Getty.mkv
Format : Matroska
Format version : Version 2
File size : 1.23 GiB
Duration : 47 min 43 s
Overall bit rate mode : Variable
Overall bit rate : 3 688 kb/s
Encoded date : UTC 2019-06-12 11:01:31
Writing application : mkvmerge v4.0.0 ('The Stars were mine') сборка от Jun 6 2010 16:18:42
Writing library : libebml v1.0.0 + libmatroska v1.0.0

Video
ID : 1
Format : AVC
Format/Info : Advanced Video Codec
Format profile : High@L4.1
Format settings : CABAC / 5 Ref Frames
Format settings, CABAC : Yes
Format settings, ReFrames : 5 frames
Codec ID : V_MPEG4/ISO/AVC
Duration : 47 min 43 s
Bit rate mode : Variable
Bit rate : 3 423 kb/s
Maximum bit rate : 40.0 Mb/s
Width : 1 280 pixels
Height : 720 pixels
Display aspect ratio : 16:9
Frame rate mode : Constant
Frame rate : 25.000 FPS
Color space : YUV
Chroma subsampling : 4:2:0
Bit depth : 8 bits
Scan type : Progressive
Bits/(Pixel*Frame) : 0.149
Stream size : 1.14 GiB (93%)
Language : Russian
Default : Yes
Forced : No

Audio
ID : 2
Format : AC-3
Format/Info : Audio Coding 3
Codec ID : A_AC3
Duration : 47 min 43 s
Bit rate mode : Constant
Bit rate : 192 kb/s
Channel(s) : 2 channels
Channel positions : Front: L R
Sampling rate : 48.0 kHz
Frame rate : 31.250 FPS (1536 SPF)
Bit depth : 16 bits
Compression mode : Lossy
Stream size : 65.5 MiB (5%)
Language : Russian
Service kind : Complete Main
Default : Yes
Forced : No

Раздача ведётся путём добавления новых серий, при каждом добавлении создаётся новый торрент. Чтобы начать докачку новой серии, пользователям необходимо сделать следующее:

- Остановить скачивание.
- Удалить старый торрент у себя из клиента (старые серии удалять не надо).
- Скачать новый торрент и запустить его у себя в клиенте вместо старого, при этом указать клиенту путь в старую папку куда и должно происходить скачивание новых серий.

Ваш клиент при этом должен произвести хеширование (проверку) старой папки (если не производит сам - помогите ему сделать это), и будет докачивать только те серии которых у вас ещё нет. Старые серии при этом не удаляются, а продолжают раздаваться!
Если вы уже удалили старые серии, то предотвратить повторную закачку старых серий можно, отжав галочку в соответствующих местах при запуске нового торрента. По возможности, желательно не удалять старые серии как можно дольше, чтобы релизер не столько продолжал раздавать старые серии, а смог сконцентрироваться на новых.
pb.wtf



Скачать Беловодье. Тайна затерянной страны через торрент https://i110.fastpic.ru/big/2019/0612/b8/e80cd32655598d5a0fa4338c93a9ceb8.jpg Скачать фильм Беловодье. Тайна затерянной страны через торрент бесплантно в хорошем качестве Описание: Герои самого зрелищного российского фэнтези-сериала «Пока цветет папоротник» возвращаются на экраны в новой полной приключений и ... 10 10 3
Торрент: Зарегистрирован [2019-07-10 12:05] · скачан: 54 раз
Статус: √ проверено
Размер: 14.82 GB
Как cкачать? Как скачать Беловодье. Тайна затерянной страны через торрент | qTorrent

% Раздел Тема Автор DL S | L
Наши сериалы [ 7.03 GB ] Беловодье. Тайна затерянной страны / Сезон: 1 / Серии: 1-12 из 12 [2019 WEB-DLRip] bober100 Скачать
1 | 0
Наши сериалы [ 7.03 GB ] Беловодье. Тайна затерянной страны / Сезон: 1 / Серии: 1-12 из 12 [2019 WEB-DLRip-AVC] bober100 Скачать
1 | 0
Наши сериалы [ 20.85 GB ] Беловодье. Тайна затерянной страны / Сезон: 1 / Серии: 1-12 из 12 [2019 WEB-DL 1080p] bober100 Скачать
1 | 0

28-11-2019 20:33  

Отключить всю рекламу на сайте

    Дорогой пользователь! Огромная просьба, поблагодарите релизера, оцените раздачу и оставьте свои комментарий, если Вы скачали Беловодье. Тайна затерянной страны через торрент бесплатно! Внесите свою лепту в развитие PiratBit!
    Комментировать посты могут только пользователи прошедшие не сложную регистрацию
    Показать сообщения:    

    Беловодье. Тайна затерянной страны через торрент
    Скачать бесплатно Беловодье. Тайна затерянной страны
    Беловодье. Тайна затерянной страны скачать торрент
    Беловодье. Тайна затерянной страны смотреть онлайн
    Cкачать фильм Беловодье. Тайна затерянной страны бесплатно
    Беловодье. Тайна затерянной страны скачать торрент в хорошем качестве
    Беловодье. Тайна затерянной страны смотреть онлайн бесплатно в хорошем качестве


    Вы не можете начинать темы
    Вы не можете отвечать на сообщения
    Вы не можете редактировать свои сообщения
    Вы не можете удалять свои сообщения
    Вы не можете голосовать в опросах
    Вы не можете прикреплять файлы к сообщениям
    Вы можете скачивать файлы