Ссылка на приватное зеркало нашего сайта всего за 1$. Внимание количество ограничено!!!

2 сезон

iTunes

1 сезон

1

2 сезон

2 сезон

iTunes

1 сезон

RePack

30

Новинка

ВАЖНО

ИГРА 18+

pack

RePack

MK11
pack

Забери бонус

RePack

jed

!!Акция!!

Alien_Rage

RePack

fifa19

RePack

Assassins Creed: Odyssey

RePack

NEED FOR SPEED™ PAYBACK

4 сезон

9 сезон

Бесстыжие 9 сезон

Все сериалы

все сериалы на PB.wtf

RePack

FAR CRY 5
  

Связь / Bonding / Сезон: 1 / Серии: 1-7 из 7 (Райтор Дойл) [2018, Драма, комедия WEB-DL 1080p] MVO [TVShows] pb.wtf

Связь через торрент pb.wtf

Размер: 2.68 GB | Добавлен: 1 год 5 мес. назад | Торрент скачан:19 раз
Скачать  

13-06-2019 14:13 Связь Скачать торрент  

Связь / Bonding Год выпуска: 2019
Страна: США
Жанр: Драма, криминал
Продолжительность: 00:18:00
Перевод: Профессиональный (многоголосый закадровый) | TVShows
Субтитры: английские

Режиссёр: Райтор Дойл

В ролях:

Зои Левин, Брендан Сканнелл, Мика Сток, Кевин Кэйн, Стефани Стайлз, Чарльз Гулд, Алекс Херт, Тео Стокман, Д'Арси Карден, Джейд Элизан

Описание:

Сериал рассказывает историю Пита (Брендан Сканнелл) и Тифф (Зои Левин) — давно не видевшихся школьных друзей, которые неожиданно воссоединяются. Эта пара примечательна тем, что они дополняют друг друга, ведь Пит недавно объявил, что он — гей, а Тифф тайно оказывает услуги «госпожи», и она одна из лучших в этом деле во всем Нью-Йорке.

Сэмпл http://sendfile.su/1494875
rating


Качество: WEB-DL 1080p
Формат: MKV
Видео кодек: H.264
Аудио кодек: AC3

Видео: H.264, 1920x1080 (16:9), 23.976 fps, 2370 kbps, 0.085 bit/pixel
Аудио 1: AC3 Dolby Digital, 48 kHz, 3/2 (L,C,R,l,r) + LFE ch, 384 kbps
Аудио 2: AC3 Dolby Digital, 48 kHz, 3/2 (L,C,R,l,r) + LFE ch, 640 kbps


Реклама: отсутствует
General
Unique ID : 173746470083699315192237749777851376284 (0x82B65A5AB4F8B277417C36FB9B22629C)
Complete name : F:\Bonding.S01.1080p.TVShows\Bonding.S01E01.1080p.TVShows.mkv
Format : Matroska
Format version : Version 4 / Version 2
File size : 382 MiB
Duration : 16 min 9 s
Overall bit rate mode : Variable
Overall bit rate : 3 304 kb/s
Encoded date : UTC 2019-05-16 07:48:45
Writing application : mkvmerge v33.1.0 ('Primrose') 64-bit
Writing library : libebml v1.3.7 + libmatroska v1.5.0

Video
ID : 1
Format : AVC
Format/Info : Advanced Video Codec
Format profile : Main@L4
Format settings : CABAC / 3 Ref Frames
Format settings, CABAC : Yes
Format settings, ReFrames : 3 frames
Codec ID : V_MPEG4/ISO/AVC
Duration : 16 min 9 s
Bit rate mode : Variable
Bit rate : 2 370 kb/s
Maximum bit rate : 3 555 kb/s
Width : 1 920 pixels
Height : 1 080 pixels
Display aspect ratio : 16:9
Frame rate mode : Constant
Frame rate : 23.976 (24000/1001) FPS
Color space : YUV
Chroma subsampling : 4:2:0
Bit depth : 8 bits
Scan type : Progressive
Bits/(Pixel*Frame) : 0.048
Stream size : 263 MiB (69%)
Writing library : x264 core 148 r2715 7e75228
Encoding settings : cabac=1 / ref=3 / deblock=1:0:0 / analyse=0x1:0x111 / me=umh / subme=10 / psy=1 / psy_rd=1.00:0.00 / mixed_ref=1 / me_range=24 / chroma_me=1 / trellis=2 / 8x8dct=0 / cqm=0 / deadzone=21,11 / fast_pskip=1 / chroma_qp_offset=-2 / threads=8 / lookahead_threads=1 / sliced_threads=0 / nr=0 / decimate=1 / interlaced=0 / bluray_compat=0 / stitchable=1 / constrained_intra=0 / bframes=2 / b_pyramid=0 / b_adapt=2 / b_bias=0 / direct=3 / weightb=1 / open_gop=0 / weightp=2 / keyint=48 / keyint_min=25 / scenecut=0 / intra_refresh=0 / rc_lookahead=48 / rc=2pass / mbtree=1 / bitrate=2370 / ratetol=1.0 / qcomp=0.50 / qpmin=6 / qpmax=51 / qpstep=4 / cplxblur=20.0 / qblur=0.5 / vbv_maxrate=3555 / vbv_bufsize=4740 / nal_hrd=vbr / filler=0 / ip_ratio=1.40 / aq=1:1.00
Default : Yes
Forced : No

Audio #1
ID : 2
Format : AC-3
Format/Info : Audio Coding 3
Codec ID : A_AC3
Duration : 16 min 9 s
Bit rate mode : Constant
Bit rate : 384 kb/s
Channel(s) : 6 channels
Channel positions : Front: L C R, Side: L R, LFE
Sampling rate : 48.0 kHz
Frame rate : 31.250 FPS (1536 SPF)
Bit depth : 16 bits
Compression mode : Lossy
Stream size : 44.4 MiB (12%)
Title : TVShows
Language : Russian
Service kind : Complete Main
Default : Yes
Forced : Yes

Audio #2
ID : 3
Format : E-AC-3
Format/Info : Enhanced Audio Coding 3
Codec ID : A_EAC3
Duration : 16 min 9 s
Bit rate mode : Constant
Bit rate : 640 kb/s
Channel(s) : 6 channels
Channel positions : Front: L C R, Side: L R, LFE
Sampling rate : 48.0 kHz
Frame rate : 187.500 FPS (256 SPF)
Compression mode : Lossy
Stream size : 74.0 MiB (19%)
Title : Original
Language : English
Service kind : Complete Main
Default : No
Forced : No

Text
ID : 4
Format : UTF-8
Codec ID : S_TEXT/UTF8
Codec ID/Info : UTF-8 Plain Text
Duration : 14 min 48 s
Bit rate : 76 b/s
Count of elements : 290
Stream size : 8.29 KiB (0%)
Title : English
Language : English
Default : No
Forced : No
скриншот  скриншот  скриншот  
pb.wtf



Скачать Связь через торрент https://m.media-amazon.com/images/M/MV5BMzhlYzc4NWUtYjIzMS00NWFlLTgzOTEtMGE1OTRkMDY5Y2MxXkEyXkFqcGdeQXVyMTMxODk2OTU@._V1_.jpg Скачать фильм Связь через торрент бесплантно в хорошем качестве Описание:Сериал рассказывает историю Пита (Брендан Сканнелл) и Тифф (Зои Левин) — давно не видевшихся школьных друзей, которые неожиданно ... 10 10 2
Торрент: Зарегистрирован [2019-06-13 14:13] · скачан: 19 раз
Статус: √ проверено
Размер: 2.68 GB
Как cкачать? Как скачать Связь через торрент | qTorrent

28-11-2019 20:33  

Отключить всю рекламу на сайте

    Дорогой пользователь! Огромная просьба, поблагодарите релизера, оцените раздачу и оставьте свои комментарий, если Вы скачали Связь через торрент бесплатно! Внесите свою лепту в развитие PiratBit!
    Комментировать посты могут только пользователи прошедшие не сложную регистрацию
    Показать сообщения:    

    Связь через торрент
    Скачать бесплатно Связь
    Связь скачать торрент
    Связь смотреть онлайн
    Cкачать фильм Связь бесплатно
    Связь скачать торрент в хорошем качестве
    Связь смотреть онлайн бесплатно в хорошем качестве


    Вы не можете начинать темы
    Вы не можете отвечать на сообщения
    Вы не можете редактировать свои сообщения
    Вы не можете удалять свои сообщения
    Вы не можете голосовать в опросах
    Вы не можете прикреплять файлы к сообщениям
    Вы можете скачивать файлы