Ссылка на приватное зеркало нашего сайта всего за 1$. Внимание количество ограничено!!!

2 сезон

iTunes

1 сезон

1

2 сезон

2 сезон

iTunes

1 сезон

RePack

30

Новинка

ВАЖНО

ИГРА 18+

pack

RePack

MK11
pack

Забери бонус

RePack

jed

!!Акция!!

Alien_Rage

RePack

fifa19

RePack

Assassins Creed: Odyssey

RePack

NEED FOR SPEED™ PAYBACK

4 сезон

9 сезон

Бесстыжие 9 сезон

Все сериалы

все сериалы на PB.wtf

RePack

FAR CRY 5
  

Джинн / Jinn / Сезон: 1 / Серии: 1-5 из 5 (Мир-Жан Бу Чаая, Амин Матальга) [2019, драма, фэнтези, WEBRip 1080p] MVO [Octopus] pb.wtf

Джинн через торрент pb.wtf

Размер: 7.58 GB | Добавлен: 1 год 5 мес. назад | Торрент скачан:4 раза
Скачать  

13-06-2019 15:50 Джинн Скачать торрент  

Джинн / Jinn Год выпуска: 2019
Страна: Ливан, Иордания
Жанр: драма, фэнтези
Продолжительность: ~ 00:45:00 серия
Перевод: Любительский (многоголосый) | Octopus
Субтитры: отсутствуют

Режиссер: Мир-Жан Бу Чаая, Амин Матальга

rating


В ролях:

Султан Альхаил, Хана Чамун, Ясир Аль Хади, Пан Халаве, Мохаммад Хинди, Сальма Малхас, Хамзех Окаб, Айша Шахалто, Ануар Х. Шмайне, Карам Таббаа

Описание:

Школьная поездка к местной достопримечательности - городу в скале Петра - оборачивается для одного участника внезапной смертью. Парень погибает упав со скалы. Вскоре выясняется, что причиной его смерти был джинн, самовольно проникший в наш мир, а за ним явился и другой с целью вернуть беглеца обратно. Второй джинн уверен, что зло окопалось где-то в старшей школе, поэтому просит помощи у старшеклассницы.

Качество: WEBRip 1080p
Формат: MKV

Видео: h.264, ~ 6200 Кбит/с, 1920x1008
Аудио: Русский, (AC3, 2 ch, 384 Кбит/с)
скриншот  скриншот  скриншот  

Общее
Уникальный идентификатор : 273717407040959805542776534331530954296 (0xCDEC0E17E3A78ACDE1159F9DCCA44638)
Полное имя : D:\Jinn.S01.1080p.Octopus\Jinn.S01E01.1080p.Octopus.mkv
Формат : Matroska
Версия формата : Version 4 / Version 2
Размер файла : 2,19 Гбайт
Продолжительность : 47 м. 13 с.
Режим общего битрейта : Переменный
Общий поток : 6654 Кбит/сек
Дата кодирования : UTC 2019-06-13 12:58:34
Программа кодирования : mkvmerge v19.0.0 ('Brave Captain') 64-bit
Библиотека кодирования : libebml v1.3.5 + libmatroska v1.4.8

Видео
Идентификатор : 2
Формат : AVC
Формат/Информация : Advanced Video Codec
Профиль формата : High@L4.1
Параметр CABAC формата : Да
Параметр RefFrames формата : 4 кадра
Идентификатор кодека : V_MPEG4/ISO/AVC
Продолжительность : 47 м. 13 с.
Вид битрейта : Переменный
Битрейт : 6137 Кбит/сек
Номинальный битрейт : 7000 Кбит/сек
Максимальный битрейт : 7000 Кбит/сек
Ширина : 1920 пикселей
Высота : 1008 пикселей
Соотношение сторон : 1,905
Режим частоты кадров : Постоянный
Частота кадров : 23,976 (24000/1001) кадра/сек
Стандарт вещания : Component
Цветовое пространство : YUV
Субдискретизация насыщенности : 4:2:0
Битовая глубина : 8 бит
Тип развёртки : Прогрессивная
Бит/(Пиксели*Кадры) : 0.132
Размер потока : 2,02 Гбайт (92%)
Библиотека кодирования : x264 core 148
Настройки программы : cabac=1 / ref=4 / deblock=1:0:0 / analyse=0x3:0x3 / me=dia / subme=1 / psy=1 / psy_rd=1.00:0.00 / mixed_ref=0 / me_range=16 / chroma_me=1 / trellis=0 / 8x8dct=1 / cqm=1 / deadzone=21,11 / fast_pskip=1 / chroma_qp_offset=0 / threads=24 / lookahead_threads=4 / sliced_threads=0 / slices=1 / nr=0 / decimate=1 / interlaced=0 / minigop=0 / stitchable=1 / constrained_intra=0 / bframes=3 / b_pyramid=0 / b_adapt=0 / b_bias=0 / direct=1 / weightb=1 / open_gop=1 / weightp=0 / keyint=250 / keyint_min=23 / scenecut=40 / intra_refresh=0 / rc_lookahead=0 / rc=cbr / mbtree=0 / bitrate=7000 / ratetol=1.0 / qcomp=0.60 / qpmin=1 / qpmax=69 / qpstep=4 / vbv_maxrate=7000 / vbv_bufsize=7000 / nal_hrd=vbr / filler=0 / ip_ratio=1.40 / pb_ratio=1.30 / aq=1:1.00
Default : Да
Forced : Нет
Цветовой диапазон : Limited
Основные цвета : BT.709
Характеристики трансфера : BT.709
Коэффициенты матрицы : BT.709

Аудио
Идентификатор : 1
Формат : AC-3
Формат/Информация : Audio Coding 3
Расширение режима : CM (complete main)
Параметр Endianness формата : Big
Идентификатор кодека : A_AC3
Продолжительность : 47 м. 13 с.
Вид битрейта : Постоянный
Битрейт : 384 Кбит/сек
Каналы : 2 канала
Расположение каналов : Front: L R
Частота : 48,0 КГц
Частота кадров : 31,250 кадров/сек (1536 spf)
Метод сжатия : С потерями
Размер потока : 130 Мбайт (6%)
Default : Да
Forced : Нет

pb.wtf



Скачать Джинн через торрент https://c.radikal.ru/c42/1906/f7/6a4be2ee7950.jpg Скачать фильм Джинн через торрент бесплантно в хорошем качестве Описание: Школьная поездка к местной достопримечательности - городу в скале Петра - оборачивается для одного участника внезапной смертью. ... 10 10 2
Торрент: Зарегистрирован [2019-06-13 15:50] · скачан: 4 раз
Статус: √ проверено
Размер: 7.58 GB
Как cкачать? Как скачать Джинн через торрент | qTorrent

% Раздел Тема Автор DL S | L
Зарубежные сериалы [ 6.59 GB ] Джинн / Jinn / Сезон: 1 / Серии: 1-5 из 5 [2019 WEBRip 720p] MVO [Octopus] bober100 Скачать
1 | 0
Зарубежные сериалы [ 2.17 GB ] Джинн / Jinn / Сезон: 1 / Серии: 1-5 из 5 [2019 WEBRip] MVO [Octopus] bober100 Скачать
1 | 0

28-11-2019 20:33  

Отключить всю рекламу на сайте

    Дорогой пользователь! Огромная просьба, поблагодарите релизера, оцените раздачу и оставьте свои комментарий, если Вы скачали Джинн через торрент бесплатно! Внесите свою лепту в развитие PiratBit!
    Комментировать посты могут только пользователи прошедшие не сложную регистрацию
    Показать сообщения:    

    Джинн через торрент
    Скачать бесплатно Джинн
    Джинн скачать торрент
    Джинн смотреть онлайн
    Cкачать фильм Джинн бесплатно
    Джинн скачать торрент в хорошем качестве
    Джинн смотреть онлайн бесплатно в хорошем качестве


    Вы не можете начинать темы
    Вы не можете отвечать на сообщения
    Вы не можете редактировать свои сообщения
    Вы не можете удалять свои сообщения
    Вы не можете голосовать в опросах
    Вы не можете прикреплять файлы к сообщениям
    Вы можете скачивать файлы