Всегда рабочее зеркало без VPN и Proxy просто перед .vidak.icu напиши любое слово или цифру, Пример http://4f6b.vidak.icu

MVO

MVO

1 сезон

1

1 сезон

iTunes

1 сезон

13

1 сезон

Deluxe

pack

Рекомендуем

Repack

30

ВАЖНО

RePack

MK11

RePack

jed

RePack

fifa19

RePack

RDR2

RePack

NEED FOR SPEED™ PAYBACK

Кинопоиск HD

6 сезон

 Острые козырьки 6 сезон

Все сериалы

все сериалы на PB.wtf

RePack

FAR CRY 5
  
Magnet ссылка

Чужая ненависть / The Hate U Give (Джордж Тиллман мл.) [2018, драма, криминал, UHD BDRemux 2160p] 2xMVO + DUB (ukr) pb.wtf

Чужая ненависть через торрент pb.wtf

Размер: 49.1 GB | Добавлен: 3 года 1 мес. назад | Торрент скачан:14 раз
Смотреть онлайн Чужая ненависть | Скачать    Ребята, помогите собрать деньги на оплату серверов!!!

13-06-2019 17:30 Чужая ненависть Скачать торрент  

Чужая ненависть / The Hate U Give««Two worlds, one voice, no going back»»

Год выпуска: 2018
Страна: США
Жанр: драма, криминал
Продолжительность: 02:13:04
Перевод: Профессиональный многоголосый
Субтитры: Русские (Full, Forced), украинские (Full, Forced), английские (Full, SDH)
Режиссер: Джордж Тиллман мл.
В ролях:

Амандла Стенберг (Starr Carter), Реджина Холл (Lisa Carter), Расселл Хорнсби (Maverick «Mav» Carter), Энтони Маки (King), Исса Рэй (April Ofrah), Коммон (Carlos), Элджи Смит (Khalil), Сабрина Карпентер (Hailey), Кей Джей Апа (Chris), Доминик Фишбэк (Kenya), Ламар Джонсон (Seven Carter), TJ Wright (Sekani)
Описание:
Девушка-подросток из чёрного гетто Старр мечется между двумя мирами - своим домом в неспокойном бедном районе и благополучной школой, где она учится вместе с белыми детьми. Положение Старр осложняется, когда она становится единственной свидетельницей того, как полицейский выстрелил в её безоружного друга, подозреваемого в наркоторговле.
Рейтинг:

MPAA: PG-13 - Детям до 13 лет просмотр не желателен
Качество: UHD BDRemux 2160p
Формат: MKV
Видео: HEVC HDR, 46.2 Мбит/с, 3840x2160, 23.976 Кадр/с
Аудио#1: Russian: 48 kHz/24-bit, DTS, 3/2 (L,C,R,l,r) + LFE ch, ~768.00 kbps avg |Профессиональный многоголосый, (Лицензия BD EUR) |
Аудио#2: Russian: 48 kHz, AC3, 3/2 (L,C,R,l,r) + LFE ch, ~448.00 kbps avg |Профессиональный многоголосый, (Лицензия BD EUR) |
Аудио#3: Russian: 48 kHz, AC3, 2/0 (L,R) ch, ~192.00 kbps avg |Профессиональный многоголосый, (HDRezka Studio) |
Аудио#4: Ukrainian: 48 kHz, AC3, 3/2 (L,C,R,l,r) + LFE ch, ~448.00 kbps avg |Dub, студія Postmodern|
Аудио#5: English: 48 kHz, DTS-HD MA, 8 ch, 48 kHz, 4545 kbps, 24-bit (DTS Core 6 ch, 48 kHz, 1509 kbps) |Оригинал|
Аудио#6: English: 48 kHz, AC3, 2/0 (L,R) ch, ~224.00 kbps avg |Commentary by George Tillman Jr./Amanda Stenberg/Russell Hornsby/Angie Thomas/Craig Hayes|

Complete name : E:\Movies\The.Hate.U.Give.2018.UHD.BluRay.2160p.DTS-HD.MA.7.1.HEVC.REMUX-SHD13.mkv
Format : Matroska
Format version : Version 4
File size : 49.1 GiB
Duration : 2 h 13 min
Overall bit rate mode : Variable
Overall bit rate : 52.8 Mb/s
Movie name : The.Hate.U.Give.2018.UHD.BluRay.2160p./Relese by SpaceHD13
Encoded date : UTC 2019-06-13 10:28:02
Writing application : mkvmerge v34.0.0 ('Sight and Seen') 64-bit
Writing library : libebml v1.3.7 + libmatroska v1.5.0
Attachments : poster.png

Video
ID : 1
Format : HEVC
Format/Info : High Efficiency Video Coding
Format profile : Main [email protected]@High
HDR format : SMPTE ST 2094 App 4, Version 1, HDR10+ Profile A compatible
Codec ID : V_MPEGH/ISO/HEVC
Duration : 2 h 13 min
Bit rate : 46.2 Mb/s
Width : 3 840 pixels
Height : 2 160 pixels
Display aspect ratio : 16:9
Frame rate mode : Constant
Frame rate : 23.976 (24000/1001) FPS
Color space : YUV
Chroma subsampling : 4:2:0 (Type 2)
Bit depth : 10 bits
Bits/(Pixel*Frame) : 0.232
Stream size : 42.9 GiB (87%)
Title : The.Hate.U.Give.2018.UHD.BluRay.2160p.DTS-HD.MA.7.1.HEVC.REMUX-SHD13
Default : Yes
Forced : No
Color range : Limited
Color primaries : BT.2020
Transfer characteristics : PQ
Matrix coefficients : BT.2020 non-constant
Mastering display color pri : Display P3
Mastering display luminance : min: 0.0050 cd/m2, max: 1000 cd/m2

Audio #1
ID : 2
Format : DTS
Format/Info : Digital Theater Systems
Codec ID : A_DTS
Duration : 2 h 13 min
Bit rate mode : Constant
Bit rate : 768 kb/s
Channel(s) : 6 channels
Channel layout : C L R Ls Rs LFE
Sampling rate : 48.0 kHz
Frame rate : 93.750 FPS (512 SPF)
Bit depth : 24 bits
Compression mode : Lossy
Stream size : 731 MiB (1%)
Title : MVO [License]
Language : Russian
Default : Yes
Forced : No

Audio #2
ID : 3
Format : AC-3
Format/Info : Audio Coding 3
Commercial name : Dolby Digital
Codec ID : A_AC3
Duration : 2 h 13 min
Bit rate mode : Constant
Bit rate : 448 kb/s
Channel(s) : 6 channels
Channel layout : L R C LFE Ls Rs
Sampling rate : 48.0 kHz
Frame rate : 31.250 FPS (1536 SPF)
Bit depth : 16 bits
Compression mode : Lossy
Stream size : 426 MiB (1%)
Title : MVO [License]
Language : Russian
Service kind : Complete Main
Default : No
Forced : No

Audio #3
ID : 4
Format : AC-3
Format/Info : Audio Coding 3
Commercial name : Dolby Digital
Codec ID : A_AC3
Duration : 2 h 13 min
Bit rate mode : Constant
Bit rate : 192 kb/s
Channel(s) : 2 channels
Channel layout : L R
Sampling rate : 48.0 kHz
Frame rate : 31.250 FPS (1536 SPF)
Bit depth : 16 bits
Compression mode : Lossy
Stream size : 183 MiB (0%)
Title : MVO [HDRezka Studio]
Language : Russian
Service kind : Complete Main
Default : No
Forced : No

Audio #4
ID : 5
Format : AC-3
Format/Info : Audio Coding 3
Commercial name : Dolby Digital
Codec ID : A_AC3
Duration : 2 h 13 min
Bit rate mode : Constant
Bit rate : 448 kb/s
Channel(s) : 6 channels
Channel layout : L R C LFE Ls Rs
Sampling rate : 48.0 kHz
Frame rate : 31.250 FPS (1536 SPF)
Bit depth : 16 bits
Compression mode : Lossy
Stream size : 426 MiB (1%)
Title : [License]
Language : Ukrainian
Service kind : Complete Main
Default : No
Forced : No

Audio #5
ID : 6
Format : DTS XLL
Format/Info : Digital Theater Systems
Commercial name : DTS-HD Master Audio
Codec ID : A_DTS
Duration : 2 h 13 min
Bit rate mode : Variable
Bit rate : 4 545 kb/s
Channel(s) : 8 channels
Channel layout : C L R LFE Lb Rb Lss Rss
Sampling rate : 48.0 kHz
Frame rate : 93.750 FPS (512 SPF)
Bit depth : 24 bits
Compression mode : Lossless
Stream size : 4.22 GiB (9%)
Title : [Оригинал]
Language : English
Default : No
Forced : No

Audio #6
ID : 7
Format : AC-3
Format/Info : Audio Coding 3
Commercial name : Dolby Digital
Codec ID : A_AC3
Duration : 2 h 13 min
Bit rate mode : Constant
Bit rate : 224 kb/s
Channel(s) : 2 channels
Channel layout : L R
Sampling rate : 48.0 kHz
Frame rate : 31.250 FPS (1536 SPF)
Bit depth : 16 bits
Compression mode : Lossy
Stream size : 213 MiB (0%)
Title : Commentary by George Tillman Jr./Amanda Stenberg/Russell Hornsby/Angie Thomas/Craig Hayes
Language : English
Service kind : Complete Main
Default : No
Forced : No

Text #1
ID : 8
Format : UTF-8
Codec ID : S_TEXT/UTF8
Codec ID/Info : UTF-8 Plain Text
Duration : 2 h 9 min
Bit rate : 0 b/s
Count of elements : 16
Stream size : 624 Bytes (0%)
Title : Forced
Language : Russian
Default : Yes
Forced : No

Text #2
ID : 9
Format : UTF-8
Codec ID : S_TEXT/UTF8
Codec ID/Info : UTF-8 Plain Text
Duration : 2 h 12 min
Bit rate : 90 b/s
Count of elements : 1910
Stream size : 88.2 KiB (0%)
Title : Full
Language : Russian
Default : No
Forced : No

Text #3
ID : 10
Format : UTF-8
Codec ID : S_TEXT/UTF8
Codec ID/Info : UTF-8 Plain Text
Duration : 2 h 9 min
Bit rate : 0 b/s
Count of elements : 8
Stream size : 394 Bytes (0%)
Title : Forced
Language : Ukrainian
Default : No
Forced : No

Text #4
ID : 11
Format : UTF-8
Codec ID : S_TEXT/UTF8
Codec ID/Info : UTF-8 Plain Text
Duration : 2 h 12 min
Bit rate : 96 b/s
Count of elements : 1907
Stream size : 94.0 KiB (0%)
Title : Full
Language : Ukrainian
Default : No
Forced : No

Text #5
ID : 12
Format : UTF-8
Codec ID : S_TEXT/UTF8
Codec ID/Info : UTF-8 Plain Text
Duration : 2 h 7 min
Bit rate : 66 b/s
Count of elements : 2044
Stream size : 62.4 KiB (0%)
Title : Full
Language : English
Default : No
Forced : No

Text #6
ID : 13
Format : UTF-8
Codec ID : S_TEXT/UTF8
Codec ID/Info : UTF-8 Plain Text
Duration : 2 h 12 min
Bit rate : 80 b/s
Count of elements : 2456
Stream size : 77.8 KiB (0%)
Title : SDH
Language : English
Default : No
Forced : No

Text #7
ID : 14
Format : PGS
Muxing mode : zlib
Codec ID : S_HDMV/PGS
Codec ID/Info : Picture based subtitle format used on BDs/HD-DVDs
Duration : 2 h 12 min
Bit rate : 53.6 kb/s
Count of elements : 4913
Stream size : 50.9 MiB (0%)
Language : English
Default : No
Forced : No
pb.wtf



Скачать Чужая ненависть через торрент https://b.radikal.ru/b33/1906/b8/884e9cc8f0fc.jpg Скачать, смотреть онлайн Чужая ненависть бесплантно в хорошем качестве Описание: Девушка-подросток из чёрного гетто Старр мечется между двумя мирами - своим домом в неспокойном бедном районе и благополучной ... 10 10 2
Info! Золотая раздача, скачанное не засчитывается.
Торрент: Зарегистрирован [2019-06-13 17:30] · скачан: 14 раз
Статус: √ проверено
Размер: 49.1 GB
Как cкачать? Как скачать Чужая ненависть через торрент | UTorrent

% Раздел Тема Автор DL S | L
Фильмы 2018 [DVDrip, WEB-DLRip, HDrip] (DUB, MVO) [ 1.46 GB ] Чужая ненависть / Ваша ненависть / The Hate U Give [2018 BDRip] MVO [] Twi7ter Скачать
1 | 0
Фильмы 2018 [DVDrip, WEB-DLRip, HDrip] (DUB, MVO) [ 2.01 GB ] Чужая ненависть / Ваша ненависть / The Hate U Give [2018 BDRip-AVC] MVO bober100 Скачать
1 | 0
Фильмы 2018 [DVDrip, WEB-DLRip, HDrip] (DUB, MVO) [ 2.18 GB ] Чужая ненависть / Ваша ненависть / The Hate U Give [2018 BDRip] MVO [] Twi7ter Скачать
1 | 0
Фильмы [HD 720p, 1080p] (Хороший звук DUB, MVO) [ 7.4 GB ] Чужая ненависть / Ваша ненависть / The Hate U Give [2018 BDRip 720p] MVO bober100 Скачать
1 | 0
Фильмы [HD 720p, 1080p] (Хороший звук DUB, MVO) [ 13.95 GB ] Чужая ненависть / Ваша ненависть / The Hate U Give [2018 BDRip 1080p] MVO bober100 Скачать
1 | 0
Фильмы 2018 [DVDrip, WEB-DLRip, HDrip] (DUB, MVO) [ 1.46 GB ] Чужая ненависть / Ваша ненависть / The Hate U Give [2018 BDRip] MVO bober100 Скачать
2 | 0
Фильмы 2018 [DVDrip, WEB-DLRip, HDrip] (DUB, MVO) [ 2.12 GB ] Чужая ненависть / Ваша ненависть / The Hate U Give [2018 BDRip] MVO bober100 Скачать
1 | 0

28-11-2019 20:33  

Отключить вcю реклaмy на сайте

    Дорогой пользователь! Огромная просьба, поблагодарите релизера, оцените раздачу и оставьте свои комментарий, если Вы скачали Чужая ненависть через торрент бесплатно!
    Комментировать посты могут только пользователи прошедшие не сложную регистрацию
    Показать сообщения:    

    Чужая ненависть через торрент
    Скачать бесплатно Чужая ненависть
    Чужая ненависть скачать торрент
    Чужая ненависть смотреть онлайн
    Cкачать фильм Чужая ненависть бесплатно
    Чужая ненависть скачать торрент в хорошем качестве
    Чужая ненависть смотреть онлайн бесплатно в хорошем качестве


    Вы не можете начинать темы
    Вы не можете отвечать на сообщения
    Вы не можете редактировать свои сообщения
    Вы не можете удалять свои сообщения
    Вы не можете голосовать в опросах
    Вы не можете прикреплять файлы к сообщениям
    Вы можете скачивать файлы