новый адрес
Ссылка на приватное зеркало всего за 1$. Внимание количество ограничено!!!

iTunes

1+1

iTunes

мы

iTunes

1

iTunes

Чернобыль

iTunes

Ральф против интернета

Лицензия

ПШазам

Лицензия

Оно 2

Лицензия

30
pack

Вам бонус

ВАЖНО

!!Акция!!

Alien_RageХит недели

RePack

Resident Evil 21

ИГРА 18+

pack

RePack

jed

!!Акция!!

Alien_Rage

RePack

fifa19

RePack

Assassins Creed: Odyssey

RePack

NEED FOR SPEED™ PAYBACK

3 сезон

9 сезон

Бесстыжие 9 сезон

Все сериалы

все сериалы на PB.wtf

RePack

FAR CRY 5
Ребята, катастрофически не хватает 1900р. для оплаты серверов за Октябрь (всвязи с блокировками трафик упал в 3 раза), 1-2р., выручайте.
  

Пока цветёт папоротник / Серии: 1-13 из 13 (Евгений Бедарев) [2012, фентези, комедия, приключения, HDTV 1080i] pb.wtf

Пока цветёт папоротник через торрент pb.wtf

Раздают: 1 [ 0 KB/s ] Качают: 1 [ 0 KB/s ]
Размер: 34.63 GB | Добавлен: 5 мес. 8 д. назад | Торрент скачан:80 раз
Скачать  

13-06-2019 18:15 Пока цветёт папоротник Скачать торрент  

Пока цветёт папоротник Год выпуска: 2012
Страна: Россия
Жанр: фентези, комедия, приключения
Продолжительность: ~ 00:47:00
Перевод: Не требуется
Субтитры: отсутствуют

Режиссер: Евгений Бедарев



В ролях:

Александр Петров (IX), Татьяна Орлова, Павел Крайнов, Роман Курцын, Светлана Суханова, Алла Подчуфарова, Алексей Васильев (II), Юлия Самойленко, Елена Николаева (II), Сергей Майоров (III), Дмитрий Бедарев, Ольга Юрасова, Александр Никольский (II), Софья Ледовских, Константин Адаев, Алексей Лосихин, Александр Шестопалов, Виктор Мютников, Залим Мирзоев, Александр Мезенцев и др.

Описание:

В ту ночь Кирилл проснулся от собственного крика. Его мучили кошмары: мелькали заброшенные колодцы, черные деревья, глаза оборотней и еще что-то невразумительное. «Опять эта ерунда», - подумал Кирилл и подошел к распахнутому окну. Далеко внизу шумела ночная Москва. Воздух был душный и липкий. До 7 июля оставалось несколько дней. Несколько дней, которые отделяли Кирилла от важного события – ночи на Ивана Купалу. Он и не подозревает еще, что буквально завтра окажется в далекой Сибири, что среди вековых кедров и обрывистых скал Алтая его самого, сестру Сашу и нескольких случайных попутчиков закружит водоворот приключений, вынуждая то убегать от погони, то пробираться тайными тропами, то барахтаться среди порогов могучей Катуни! Однако герои даже не могли предположить, что все случившееся с ними – не просто цепь совпадений, а невидимая борьба мистических сил. Разве могли обычные туристы, дети цивилизованного мира понять, что они уже давно оказались в зачарованном и таинственном месте, где реальность не подчиняется обычным законам? Теперь, чтобы спастись от опасности, найти друг друга и выйти живыми из схватки с неведомыми силами, у героев остается слишком мало времени! Всего несколько часов, пока не настанет ночь на Ивана Купалу и не зацветет волшебный папоротник! Тот самый сказочный цветок, который позволяет видеть клады под землей, читать мысли людей и повелевать духами.

Качество: HDTV 1080i
Формат: TS

Видео: 1920x1080 (16:9), 25 fps, AVC MPEG-4 (x264), High@L4.0 ~ 7 274 kbps avg, 0.140 bit/pixel
Аудио: 48 kHz, MPEG Layer 2, 2 ch, ~320.00 kbps avg
скриншот  скриншот  скриншот  скриншот  

General
ID : 1 (0x1)
Complete name : Poka.cvetet.paporotnik.01.2012.HDTV.1080i.ts
Format : MPEG-TS
File size : 2.65 GiB
Duration : 47mn 28s
Overall bit rate mode : Variable
Overall bit rate : 7 992 Kbps

Video
ID : 1681 (0x691)
Menu ID : 1096 (0x448)
Format : AVC
Format/Info : Advanced Video Codec
Format profile : High@L4
Format settings, CABAC : Yes
Format settings, ReFrames : 2 frames
Format settings, GOP : M=3, N=12
Codec ID : 27
Duration : 47mn 28s
Bit rate : 7 274 Kbps
Width : 1 920 pixels
Height : 1 080 pixels
Display aspect ratio : 16:9
Frame rate : 25.000 fps
Color space : YUV
Chroma subsampling : 4:2:0
Bit depth : 8 bits
Scan type : Interlaced
Scan order : Top Field First
Bits/(Pixel*Frame) : 0.140
Stream size : 2.41 GiB (91%)

Audio
ID : 1682 (0x692)
Menu ID : 1096 (0x448)
Format : MPEG Audio
Format version : Version 1
Format profile : Layer 2
Codec ID : 3
Duration : 47mn 28s
Bit rate mode : Constant
Bit rate : 320 Kbps
Channel(s) : 2 channels
Sampling rate : 48.0 KHz
Compression mode : Lossy
Stream size : 109 MiB (4%)
Language : Russian

pb.wtf



Скачать Пока цветёт папоротник через торрент http://i76.fastpic.ru/big/2016/0305/f6/18df188e2c609ec29936fd3c1e1a9df6.jpg Скачать фильм Пока цветёт папоротник через торрент бесплантно в хорошем качестве Описание: В ту ночь Кирилл проснулся от собственного крика. Его мучили кошмары: мелькали заброшенные колодцы, черные деревья, глаза ... 10 10 3
Торрент: Зарегистрирован [2019-06-13 18:15] · скачан: 80 раз
Статус: √ проверено
Размер: 34.63 GB
Как cкачать? Как скачать Пока цветёт папоротник через торрент | qTorrent

% Раздел Тема Автор DL S | L
Наши сериалы [ 7.07 GB ] Пока цветёт папоротник / Серии: 1-13 из 13 [2012 фентези WEB-DLRip] bober100 Скачать
2 | 0


>> Переходим по ссылке <<
Автоматически подгузится скрипт который настроит ваш браузер на выигрыш!!
После настройки браузера вероятность выигрыша увеличется в 4.1-4,6 раза.
В течение 6 секунд вам откроется настроенный интерфейс казино, с повышенной вероятностью выигрыша.






Отзывы и комментарии о схеме читаем и пишем здесь: ---> Отзывы и комментарии о схеме

Новые благодарочки в телеграм довольных пользователей:
скриншот   скриншот   скриншот   скриншот   скриншот
    Дорогой пользователь! Огромная просьба, поблагодарите релизера, оцените раздачу и оставьте свои комментарий, если Вы скачали Пока цветёт папоротник через торрент бесплатно! Внесите свою лепту в развитие PiratBit!
    Комментировать посты могут только пользователи прошедшие не сложную регистрацию
    Показать сообщения:    

    Пока цветёт папоротник через торрент
    Скачать бесплатно Пока цветёт папоротник
    Пока цветёт папоротник скачать торрент
    Пока цветёт папоротник смотреть онлайн
    Cкачать фильм Пока цветёт папоротник бесплатно
    Пока цветёт папоротник скачать торрент в хорошем качестве
    Пока цветёт папоротник смотреть онлайн бесплатно в хорошем качестве


    Вы не можете начинать темы
    Вы не можете отвечать на сообщения
    Вы не можете редактировать свои сообщения
    Вы не можете удалять свои сообщения
    Вы не можете голосовать в опросах
    Вы не можете прикреплять файлы к сообщениям
    Вы можете скачивать файлы