Всегда рабочее зеркало без VPN и Proxy просто перед .vidak.icu напиши любое слово или цифру, Пример http://1irp.vidak.icu

MVO

MVO

1 сезон

1

1 сезон

iTunes

1 сезон

13

1 сезон

Deluxe

pack

Рекомендуем

Repack

30

ВАЖНО

RePack

MK11

RePack

jed

RePack

fifa19

RePack

RDR2

RePack

NEED FOR SPEED™ PAYBACK

Кинопоиск HD

6 сезон

 Острые козырьки 6 сезон

Все сериалы

все сериалы на PB.wtf

RePack

FAR CRY 5
  
Magnet ссылка

Меня зовут Мохаммед Али / What's My Name: Muhammad Ali / Серии: 1-2 из 2 (Антуан Фукуа) [2019, документальный, биография, спорт, WEB-DL 720p] MVO [Jaskier] pb.wtf

Меня зовут Мохаммед Али через торрент pb.wtf

Размер: 7.41 GB | Добавлен: 3 года 1 мес. назад | Торрент скачан:38 раз
Смотреть онлайн Меня зовут Мохаммед Али | Скачать    Ребята, помогите собрать деньги на оплату серверов!!!

14-06-2019 01:40 Меня зовут Мохаммед Али Скачать торрент  

Меня зовут Мохаммед Али / What's My Name: Muhammad Ali
Год выпуска: 2019
Страна: США
Жанр: документальный, биография, спорт
Продолжительность: 01:34:42
Перевод: Профессиональный (многоголосый) | Jaskier
Субтитры: английские

Режиссер: Антуан Фукуа

rating

В ролях:

Мухаммед Али, Дик Каветт, Джеки Робинсон, Эрни Террелл

Описание:

6 февраля 1967 года Мохаммед Али избивал Эрни Террелла на стадионе в Хьюстоне. Всякий раз он отказывался наносить решающий удар, который бы отправил соперника в нокаут, - и всякий раз спрашивал у Террелла: «Как меня зовут?». Али был по-настоящему зол: перед схваткой Террелл уж слишком назойливо называл его старым именем - Кассиус Клей. Клей сменил имя за три года до этого поединка, фактически став первым мусульманином-суперзвездой в истории поп-культуры. Сторонник чернокожего исламского радикала Малькольма Икс, демонстративно отказавшийся воевать во Вьетнаме, Али был великим бойцом не только на ринге, но и за его пределами.

Качество: WEB-DL 720p
Формат: MKV

Видео: MPEG-4 AVC, 5000 Кбит/с, 1280x720
Аудио#1: Русский (AC3, 6 ch, 640 Кбит/с)
Аудио#2: Английский (AC3, 6 ch, 640 Кбит/с)
скриншот  скриншот  скриншот  

Общее
Уникальный идентификатор : 236893029878878282711887740743515600224 (0xB237F01FDA5139AB93618C7AF6DF7560)
Полное имя : D:\Whats.My.Name.Muhammad.Ali.2019.WEB-DL.720p.JASKiER\Whats.My.Name.Muhammad.Ali.2019.Part.1.720p.AMZN.WEB-DL.DDP5.1.H.264-JASKiER.mkv
Формат : Matroska
Версия формата : Version 2
Размер файла : 3,74 Гбайт
Продолжительность : 1 ч. 23 м.
Общий поток : 6426 Кбит/сек
Дата кодирования : UTC 2019-06-14 00:46:56
Программа кодирования : mkvmerge v7.8.0 ('River Man') 32bit built on Apr 3 2015 12:11:22
Библиотека кодирования : libebml v1.3.1 + libmatroska v1.4.2

Видео
Идентификатор : 1
Формат : AVC
Формат/Информация : Advanced Video Codec
Профиль формата : [email protected]
Параметр CABAC формата : Да
Параметр RefFrames формата : 4 кадра
Идентификатор кодека : V_MPEG4/ISO/AVC
Продолжительность : 1 ч. 23 м.
Вид битрейта : Постоянный
Битрейт : 5018 Кбит/сек
Номинальный битрейт : 6000 Кбит/сек
Ширина : 1280 пикселей
Высота : 720 пикселей
Соотношение сторон : 16:9
Режим частоты кадров : Постоянный
Частота кадров : 23,976 (24000/1001) кадра/сек
Цветовое пространство : YUV
Субдискретизация насыщенности : 4:2:0
Битовая глубина : 8 бит
Тип развёртки : Прогрессивная
Бит/(Пиксели*Кадры) : 0.227
Размер потока : 2,92 Гбайт (78%)
Язык : English
Default : Да
Forced : Нет
Цветовой диапазон : Limited
Основные цвета : BT.709
Характеристики трансфера : BT.709
Коэффициенты матрицы : BT.709

Аудио #1
Идентификатор : 2
Формат : AC-3
Формат/Информация : Audio Coding 3
Расширение режима : CM (complete main)
Параметр Endianness формата : Big
Идентификатор кодека : A_AC3
Продолжительность : 1 ч. 23 м.
Вид битрейта : Постоянный
Битрейт : 640 Кбит/сек
Каналы : 6 каналов
Расположение каналов : Front: L C R, Side: L R, LFE
Частота : 48,0 КГц
Частота кадров : 31,250 кадров/сек (1536 spf)
Метод сжатия : С потерями
Размер потока : 382 Мбайт (10%)
Заголовок : Jaskier
Язык : Russian
Default : Да
Forced : Нет

Аудио #2
Идентификатор : 3
Формат : AC-3
Формат/Информация : Audio Coding 3
Расширение режима : CM (complete main)
Параметр Endianness формата : Big
Идентификатор кодека : A_AC3
Продолжительность : 1 ч. 23 м.
Вид битрейта : Постоянный
Битрейт : 640 Кбит/сек
Каналы : 6 каналов
Расположение каналов : Front: L C R, Side: L R, LFE
Частота : 48,0 КГц
Частота кадров : 31,250 кадров/сек (1536 spf)
Метод сжатия : С потерями
Размер потока : 382 Мбайт (10%)
Язык : English
Default : Нет
Forced : Нет

Текст #1
Идентификатор : 4
Формат : UTF-8
Идентификатор кодека : S_TEXT/UTF8
Идентификатор кодека/Информация : UTF-8 Plain Text
Язык : English
Default : Нет
Forced : Нет

Текст #2
Идентификатор : 5
Формат : UTF-8
Идентификатор кодека : S_TEXT/UTF8
Идентификатор кодека/Информация : UTF-8 Plain Text
Заголовок : SDH
Язык : English
Default : Нет
Forced : Нет

pb.wtf



Скачать Меня зовут Мохаммед Али через торрент https://d.radikal.ru/d18/1906/a3/bfac94812777.jpg Скачать, смотреть онлайн Меня зовут Мохаммед Али бесплантно в хорошем качестве Описание: 6 февраля 1967 года Мохаммед Али избивал Эрни Террелла на стадионе в Хьюстоне. Всякий раз он отказывался наносить решающий удар, ... 10 10 2
Торрент: Зарегистрирован [2019-06-14 01:40] · скачан: 38 раз
Статус: √ проверено
Размер: 7.41 GB
Как cкачать? Как скачать Меня зовут Мохаммед Али через торрент | UTorrent

28-11-2019 20:33  

Отключить вcю реклaмy на сайте

    Дорогой пользователь! Огромная просьба, поблагодарите релизера, оцените раздачу и оставьте свои комментарий, если Вы скачали Меня зовут Мохаммед Али через торрент бесплатно!
    Комментировать посты могут только пользователи прошедшие не сложную регистрацию
    Показать сообщения:    

    Меня зовут Мохаммед Али через торрент
    Скачать бесплатно Меня зовут Мохаммед Али
    Меня зовут Мохаммед Али скачать торрент
    Меня зовут Мохаммед Али смотреть онлайн
    Cкачать фильм Меня зовут Мохаммед Али бесплатно
    Меня зовут Мохаммед Али скачать торрент в хорошем качестве
    Меня зовут Мохаммед Али смотреть онлайн бесплатно в хорошем качестве


    Вы не можете начинать темы
    Вы не можете отвечать на сообщения
    Вы не можете редактировать свои сообщения
    Вы не можете удалять свои сообщения
    Вы не можете голосовать в опросах
    Вы не можете прикреплять файлы к сообщениям
    Вы можете скачивать файлы