MEGA SALE -75% Borderlands 3 Super Deluxe всего за 550р. 180 руб. (супер цена). Внимание количество ограничено!!!

iTunes

1+1

iTunes

мы

iTunes

1

iTunes

Чернобыль

iTunes

Ральф против интернета

Лицензия

ПШазам

Лицензия

Игра престолов

Лицензия

30
pack

ВАЖНО

!!Акция!!

Alien_RageХит недели

RePack

Resident Evil 21

ИГРА 18+

pack

RePack

Metro:Exodus

!!Акция!!

Alien_Rage

RePack

fifa19

RePack

Assassins Creed: Odyssey

RePack

NEED FOR SPEED™ PAYBACK

3 сезон

9 сезон

Бесстыжие 9 сезон

Все сериалы

все сериалы на PB.wtf

RePack

FAR CRY 5
Ребята, катастрофически не хватает 1900р. для оплаты серверов за АВГУСТ (всвязи с блокировками трафик упал в 3 раза), 1-2р., выручайте.
  

Крипто / Crypto (Джон Сталберг) [2019, триллер, драма, криминал, BDRip 1080p] MVO [HDrezka Studio] pb.wtf

Крипто через торрент pb.wtf

Размер: 11.03 GB | Добавлен: 4 мес. назад | Торрент скачан:58 раз
Скачать  

14-06-2019 04:58 Крипто Скачать торрент  

Крипто / Crypto Год выпуска: 2019
Страна: США
Жанр: триллер, драма, криминал
Продолжительность: 01:45:48
Перевод: Профессиональный (многоголосый) | HDRezka Studio
Субтитры: русские, английские

Режиссер: Джон Сталберг

rating


В ролях:

Курт Рассел, Люк Хемсворт, Алексис Бледел, Винсент Картайзер, Джилл Хеннесси, Бо Напп, Малая Ривера Дрю, Марели Миниутти, Марша Дитлайн, Джереми Харрис

Описание:

В центре истории находится Мартин — сотрудник банка, работающий в отделе по борьбе с отмыванием денег. Несмотря на то, что мужчина прекрасно справляется со своими обязанностями, босс решает отправить его в длительную командировку в родной город. Мартин не в восторге от провинциальной жизни, но приступает к работе и неожиданно сталкивается с подозрительными денежными потоками, которые проходят через местную галерею, продающую картины на миллионы долларов в криптовалюте.

Качество: BDRip 1080p
Формат: MKV

Видео: 1920x720 (2.667), 23.976 fps, MPEG-4 AVC ~13.2 Мbps avg
Аудио#1: 48.0 kHz, AC3 Dolby Digital, 2/0 (L,R) ch, ~192 kbps | RUS / HDRezka Studio
Аудио#2: 48.0 kHz, Digital Theater Systems, 3/2 (L,C,R,l,r) + LFE ch, ~1509 kbps | ENG
скриншот  скриншот  скриншот  

General
Unique ID : 162723233321483454956125079139687963104 (0x7A6B5AD23731EDAAF48992E66E1999E0)
Complete name : Crypto.2019.BDRip.1080p.mkv
Format : Matroska
Format version : Version 4 / Version 2
File size : 11.0 GiB
Duration : 1 h 45 min
Overall bit rate : 14.9 Mb/s
Movie name : Crypto.2019.BluRay.1080p.DTS-HD.MA.5.1.x264-MT
Encoded date : UTC 2019-06-13 14:38:05
Writing application : mkvmerge v20.0.0 ('I Am The Sun') 64-bit
Writing library : libebml v1.3.5 + libmatroska v1.4.8

Video
ID : 1
Format : AVC
Format/Info : Advanced Video Codec
Format profile : High@L4.1
Format settings : CABAC / 6 Ref Frames
Format settings, CABAC : Yes
Format settings, RefFrames : 6 frames
Codec ID : V_MPEG4/ISO/AVC
Duration : 1 h 45 min
Bit rate : 13.2 Mb/s
Width : 1 920 pixels
Height : 720 pixels
Display aspect ratio : 2.667
Frame rate mode : Constant
Frame rate : 23.976 (24000/1001) FPS
Color space : YUV
Chroma subsampling : 4:2:0
Bit depth : 8 bits
Scan type : Progressive
Bits/(Pixel*Frame) : 0.399
Stream size : 9.77 GiB (89%)
Language : English
Default : Yes
Forced : No

Audio #1
ID : 2
Format : AC-3
Format/Info : Audio Coding 3
Codec ID : A_AC3
Duration : 1 h 45 min
Bit rate mode : Constant
Bit rate : 192 kb/s
Channel(s) : 2 channels
Channel positions : Front: L R
Sampling rate : 48.0 kHz
Frame rate : 31.250 FPS (1536 SPF)
Bit depth : 16 bits
Compression mode : Lossy
Stream size : 145 MiB (1%)
Title : MVO HDRezka Studio
Language : Russian
Service kind : Complete Main
Default : Yes
Forced : No

Audio #2
ID : 3
Format : DTS
Format/Info : Digital Theater Systems
Codec ID : A_DTS
Duration : 1 h 45 min
Bit rate mode : Constant
Bit rate : 1 509 kb/s
Channel(s) : 6 channels
Channel positions : Front: L C R, Side: L R, LFE
Sampling rate : 48.0 kHz
Frame rate : 93.750 FPS (512 SPF)
Bit depth : 24 bits
Compression mode : Lossy
Stream size : 1.12 GiB (10%)
Language : English
Default : No
Forced : No

Text #1
ID : 4
Format : UTF-8
Codec ID : S_TEXT/UTF8
Codec ID/Info : UTF-8 Plain Text
Duration : 1 h 38 min
Bit rate : 6 b/s
Count of elements : 84
Stream size : 4.63 KiB (0%)
Language : Russian
Default : Yes
Forced : Yes

Text #2
ID : 5
Format : UTF-8
Codec ID : S_TEXT/UTF8
Codec ID/Info : UTF-8 Plain Text
Duration : 1 h 37 min
Bit rate : 60 b/s
Count of elements : 1335
Stream size : 43.1 KiB (0%)
Language : English
Default : No
Forced : No

pb.wtf



Скачать Крипто через торрент https://c.radikal.ru/c38/1904/3c/d3dc909a78ad.jpg Скачать фильм Крипто через торрент бесплантно в хорошем качестве Описание: В центре истории находится Мартин — сотрудник банка, работающий в отделе по борьбе с отмыванием денег. Несмотря на то, что ... 10 10 4
Торрент: Зарегистрирован [2019-06-14 04:58] · скачан: 58 раз
Статус: T временная
Размер: 11.03 GB
Как cкачать? Как скачать Крипто через торрент | qTorrent

% Раздел Тема Автор DL S | L
T Фильмы 2019 [DVDrip, WEB-DLRip, HDrip] (DUB, MVO) [ 1.76 GB ] Крипто / Crypto [2019 WEB-DLRip-AVC] MVO [HDRezka Studio] bober100 Скачать
4 | 0
T Фильмы 2019 [DVDrip, WEB-DLRip, HDrip] (DUB, MVO) [ 1.46 GB ] Крипто / Crypto [2019 HDRip] MVO [HDRezka Studio] - ExKinoRay Enigma2010 Скачать
24 | 0
T Фильмы (WEB-DL 720p, 1080p) [ 3.86 GB ] Крипто / Crypto [2019 WEB-DL 1080p] MVO [HDRezka Studio] - ExKinoRay Enigma2010 Скачать
56 | 3


>> Регистрируемся здесь <<






Отзывы и комментарии о схеме читаем и пишем здесь: ---> Отзывы и комментарии о схеме

Новые благодарочки в телеграм довольных пользователей:
скриншот   скриншот   скриншот   скриншот   скриншот
    Дорогой пользователь! Огромная просьба, поблагодарите релизера, оцените раздачу и оставьте свои комментарий, если Вы скачали Крипто через торрент бесплатно! Внесите свою лепту в развитие PiratBit!
    Комментировать посты могут только пользователи прошедшие не сложную регистрацию
    Показать сообщения:    

    Крипто через торрент
    Скачать бесплатно Крипто
    Крипто скачать торрент
    Крипто смотреть онлайн
    Cкачать фильм Крипто бесплатно
    Крипто скачать торрент в хорошем качестве
    Крипто смотреть онлайн бесплатно в хорошем качестве


    Вы не можете начинать темы
    Вы не можете отвечать на сообщения
    Вы не можете редактировать свои сообщения
    Вы не можете удалять свои сообщения
    Вы не можете голосовать в опросах
    Вы не можете прикреплять файлы к сообщениям
    Вы можете скачивать файлы