новый адрес пиратбит piratbit
Мега распродажа FORZA HORIZON 4 ULTIMATE+ВСЕ DLC+ОНЛАЙН всего за 499р. 349 руб. (супер цена). Внимание количество ограничено!!!

iTunes

1+1

iTunes

мы

iTunes

1

iTunes

Чернобыль

iTunes

Ральф против интернета

Лицензия

ПШазам

Лицензия

Игра престолов

Лицензия

30
pack

ВАЖНО

!!Акция!!

Alien_RageХит недели

RePack

Resident Evil 21

ИГРА 18+

pack

RePack

Metro:Exodus

!!Акция!!

Alien_Rage

RePack

fifa19

RePack

Assassins Creed: Odyssey

RePack

NEED FOR SPEED™ PAYBACK

3 сезон

9 сезон

Бесстыжие 9 сезон

Все сериалы

все сериалы на PB.wtf

RePack

FAR CRY 5
Ребята, катастрофически не хватает 1900р. для оплаты серверов за Октябрь (всвязи с блокировками трафик упал в 3 раза), 1-2р., выручайте.
  

Принимаю бой (Сергей Микаэлян) [1963, СССР, драма, криминал, VHSRip от AVP Studio] pb.wtf

Принимаю бой через торрент pb.wtf

Раздают: 3 [ 0 KB/s ]
Размер: 1.09 GB | Добавлен: 5 мес. 1 д. назад | Торрент скачан:7 раз
Скачать  

14-06-2019 09:35 Принимаю бой Скачать торрент  

Принимаю бой
Страна: СССР
Производство: Ленфильм

Жанр: драма, криминал
Год выпуска: 1963
Продолжительность: 01:19:24

Перевод: Не требуется
Cубтитры: нет
Оригинальная аудиодорожка: русский

Режиссер: Сергей Микаэлян

В ролях:
Юрий Беркун, Леонид Дьячков, Ольга Лысенко, Светлана Очкина, Павел Кашлаков, Василий Меркурьев, Ирина Губанова, Наталия Дмитриева, Валентина Егоренкова, Т. Крылова, Олег Белов, Юрий Овсянко, А. Попов...
Об актёрах подробней

Описание:
Начав трудовую жизнь на одном из больших заводов, герой оказывается под влиянием уголовников. Вовремя спохватившись и получив поддержку коллектива, Алексей порывает с бандой и вступает с ней в яростную и бескомпромиссную борьбу...

Исходник: VHS
Качество видео: VHSRip
Формат видео: AVI

Видео: 704x528 (4:3), 25,000 кадров/сек, XviD ~ 1764 kbps avg, 0.190 bit/pixel
Аудио: 48 kHz, Dolby Digital AC3 2.0, 192 kbps

Раздача от:
Общее
Полное имя : Prinimayu.boy.1963.VHSRip_[New-team]_by_AVP_Studio.avi
Формат : AVI
Формат/Информация : Audio Video Interleave
Размер файла : 1,09 Гбайт
Продолжительность : 1 ч. 19 м.
Общий поток : 1966 Кбит/сек
Программа кодирования : VirtualDubMod 1.5.10.3 | www.virtualdub-fr.org || (build 2550/release)
Библиотека кодирования : VirtualDubMod build 2550/release

Видео
Идентификатор : 0
Формат : MPEG-4 Visual
Профиль формата : Advanced Simple@L5
Настройки формата : BVOP1 / Custom Matrix
Параметр BVOP формата : 1
Параметр QPel формата : Нет
Параметр GMC формата : Без точки перехода
Параметр матрицы формата : Выборочная
Идентификатор кодека : XVID
Идентификатор кодека/Подсказка : XviD
Продолжительность : 1 ч. 19 м.
Битрейт : 1764 Кбит/сек
Ширина : 704 пикселя
Высота : 528 пикселей
Соотношение сторон : 4:3
Частота кадров : 25,000 кадров/сек
Цветовое пространство : YUV
Субдискретизация насыщенности : 4:2:0
Битовая глубина : 8 бит
Тип развёртки : Прогрессивная
Метод сжатия : С потерями
Бит/(Пиксели*Кадры) : 0.190
Размер потока : 1002 Мбайт (90%)
Библиотека кодирования : XviD 73

Аудио
Идентификатор : 1
Формат : AC-3
Формат/Информация : Audio Coding 3
Коммерческое название : Dolby Digital
Идентификатор кодека : 2000
Продолжительность : 1 ч. 19 м.
Вид битрейта : Постоянный
Битрейт : 192 Кбит/сек
Каналы : 2 канала
ChannelLayout : L R
Частота : 48,0 КГц
Частота кадров : 31,250 кадров/сек (1536 SPF)
Битовая глубина : 16 бит
Метод сжатия : С потерями
Размер потока : 109 Мбайт (10%)
Выравнивание : Разделение по промежуткам
Продолжительность промежутка : 40 мс. (1,00 видеокадр)
Время предзагрузки промежутка : 500 мс.
pb.wtf



Скачать Принимаю бой через торрент http://picplus.ru/img/1906/13/1e0fb12a.png Скачать фильм Принимаю бой через торрент бесплантно в хорошем качестве Описание:Начав трудовую жизнь на одном из больших заводов, герой оказывается под влиянием уголовников. Вовремя спохватившись и получив ... 5 10 1
Торрент: Зарегистрирован [2019-06-14 09:35] · скачан: 7 раз
Статус: √ проверено
Размер: 1.09 GB
Как cкачать? Как скачать Принимаю бой через торрент | qTorrent

% Раздел Тема Автор DL S | L
Кино СССР [ 1.09 GB ] Принимаю бой [1963 СССР VHSRip-AVC от AVP Studio] AVP Studio Скачать
2 | 0


>> Регистрируемся здесь <<






Отзывы и комментарии о схеме читаем и пишем здесь: ---> Отзывы и комментарии о схеме

Новые благодарочки в телеграм довольных пользователей:
скриншот   скриншот   скриншот   скриншот   скриншот
    Дорогой пользователь! Огромная просьба, поблагодарите релизера, оцените раздачу и оставьте свои комментарий, если Вы скачали Принимаю бой через торрент бесплатно! Внесите свою лепту в развитие PiratBit!
    Комментировать посты могут только пользователи прошедшие не сложную регистрацию
    Показать сообщения:    

    Принимаю бой через торрент
    Скачать бесплатно Принимаю бой
    Принимаю бой скачать торрент
    Принимаю бой смотреть онлайн
    Cкачать фильм Принимаю бой бесплатно
    Принимаю бой скачать торрент в хорошем качестве
    Принимаю бой смотреть онлайн бесплатно в хорошем качестве


    Вы не можете начинать темы
    Вы не можете отвечать на сообщения
    Вы не можете редактировать свои сообщения
    Вы не можете удалять свои сообщения
    Вы не можете голосовать в опросах
    Вы не можете прикреплять файлы к сообщениям
    Вы можете скачивать файлы