2 сезон

iTunes

1 сезон

1

iTunes

iTunes

iTunes

1 сезон

RePack

30

ИГРА 18+

pack

ВАЖНО

!!Акция!!

Alien_RageХит недели

RePack

MK11
pack

Забери бонус

RePack

jed

!!Акция!!

Alien_Rage

RePack

fifa19

RePack

Assassins Creed: Odyssey

RePack

NEED FOR SPEED™ PAYBACK

4 сезон

9 сезон

Бесстыжие 9 сезон

Все сериалы

все сериалы на PB.wtf

RePack

FAR CRY 5
  

Городские шпионы / Сезон: 1 / Серии: 1-12 из 12 (Дмитрий Черкасов) [2013, Детектив, приключения, WEB-DLRip-AVC] pb.wtf

Городские шпионы через торрент pb.wtf

Размер: 7.87 GB | Добавлен: 1 год 4 мес. назад | Торрент скачан:175 раз
Скачать  

14-06-2019 13:51 Городские шпионы Скачать торрент  

Городские шпионыГод выпуска: 2013
Страна: Россия
Жанр: Детектив, приключения
Продолжительность: ~ 00:52:00
Перевод: Не требуется
Субтитры: отсутствуют

Режиссер: Дмитрий Черкасов

rating

В ролях:

Оксана Фандера, Анатолий Белый, Александр Робак, Алексей Литвиненко (II), Виталий Хаев, Анна Лутцева, Фёдор Лавров, Дмитрий Фрид, Ольга Дыховичная, Ольга Сумская, Константин Котляров, Игорь Денисов, Максим Меркулов, Борис Тенин (II), Роман Морозов, Артём Григорьев (II), Евгений Кушпель, Андрюс Паулавичюс, Полина Стефанович, Олег Вебер, Инна Коляда

Описание:

Команда Андрея Шпагина расследует заговор крупного преступного синдиката по нелегальной добыче и контрабанде неограненных алмазов. Сложный преступный механизм под личиной солидного легального бизнеса. ГОРОДСКИЕ ШПИОНЫ – люди, которых мы не видим. С тысячей лиц в рукаве, и без права на ошибку…

Качество: WEB-DLRip-AVC
Формат: MKV

Видео: 1024х576 (16:9), 25 fps,Н.264 High@L4.1 ~1600 kbps avg, 0.109 bit/pixel
Аудио: 48 kHz, АС3, 2 ch, (Front: L R) ~192.00 kbps avg
скриншот  скриншот  скриншот  скриншот  

Общее
Уникальный идентификатор : 243120148082073556428648318009951732281 (0xB6E73CC17EF0669DB47BDF7924594239)
Полное имя : C:\Users\Astarot999\Downloads\Gorodskie.shpiony.2013.WEB-DLRip.(AVC).Files-x\Gorodskie.shpiony.(01.seriya.iz.12).2013.WEB-DLRip.AVC.by.Серый1779.Files-x.mkv
Формат : Matroska
Версия формата : Version 2
Размер файла : 676 Мбайт
Продолжительность : 52 м.
Общий поток : 1793 Кбит/сек
Дата кодирования : UTC 2015-11-09 21:07:25
Программа кодирования : mkvmerge v6.1.0 ('Old Devil') built on Mar 4 2013 09:10:42
Библиотека кодирования : libebml v1.3.0 + libmatroska v1.4.0

Видео
Идентификатор : 1
Формат : AVC
Формат/Информация : Advanced Video Codec
Профиль формата : High@L4.1
Параметр CABAC формата : Да
Параметр ReFrames формата : 9 кадров
Идентификатор кодека : V_MPEG4/ISO/AVC
Продолжительность : 52 м.
Битрейт : 1600 Кбит/сек
Ширина : 1024 пикселя
Высота : 576 пикселей
Соотношение сторон : 16:9
Режим частоты кадров : Постоянный
Частота кадров : 25,000 кадров/сек
Цветовое пространство : YUV
Субдискретизация насыщенности : 4:2:0
Битовая глубина : 8 бит
Тип развёртки : Прогрессивная
Бит/(Пиксели*Кадры) : 0.109
Размер потока : 590 Мбайт (87%)
Библиотека кодирования : x264 core 130 r2273 b3065e6
Настройки программы : cabac=1 / ref=9 / deblock=1:-2:-1 / analyse=0x3:0x133 / me=umh / subme=9 / psy=1 / psy_rd=1.00:0.15 / mixed_ref=1 / me_range=32 / chroma_me=1 / trellis=2 / 8x8dct=1 / cqm=0 / deadzone=21,11 / fast_pskip=0 / chroma_qp_offset=-3 / threads=3 / lookahead_threads=1 / sliced_threads=0 / nr=0 / decimate=1 / interlaced=0 / bluray_compat=0 / constrained_intra=0 / bframes=9 / b_pyramid=2 / b_adapt=2 / b_bias=0 / direct=1 / weightb=1 / open_gop=0 / weightp=2 / keyint=250 / keyint_min=25 / scenecut=40 / intra_refresh=0 / rc=2pass / mbtree=0 / bitrate=1600 / ratetol=1.0 / qcomp=0.60 / qpmin=0 / qpmax=69 / qpstep=4 / cplxblur=20.0 / qblur=0.5 / ip_ratio=1.40 / pb_ratio=1.30 / aq=2:1.00
Default : Да
Forced : Нет
Основные цвета : BT.709
Характеристики трансфера : BT.709
Коэффициенты матрицы : BT.709

Аудио
Идентификатор : 2
Формат : AC-3
Формат/Информация : Audio Coding 3
Расширение режима : CM (complete main)
Параметр Endianness формата : Big
Идентификатор кодека : A_AC3
Продолжительность : 52 м.
Вид битрейта : Постоянный
Битрейт : 192 Кбит/сек
Каналы : 2 канала
Расположение каналов : Front: L R
Частота : 48,0 КГц
Битовая глубина : 16 бит
Метод сжатия : С потерями
Размер потока : 72,4 Мбайт (11%)
Default : Да
Forced : Нет

pb.wtf



Скачать Городские шпионы через торрент https://b.radikal.ru/b19/1906/4c/971689c1de84.jpg Скачать фильм Городские шпионы через торрент бесплантно в хорошем качестве Описание: Команда Андрея Шпагина расследует заговор крупного преступного синдиката по нелегальной добыче и контрабанде неограненных ... 10 10 5
Торрент: Зарегистрирован [2019-06-14 13:51] · скачан: 175 раз
Статус: √ проверено
Размер: 7.87 GB
Как cкачать? Как скачать Городские шпионы через торрент | qTorrent

% Раздел Тема Автор DL S | L
Наши сериалы [ 18.42 GB ] Городские шпионы / Сезон: 1 / Серии: 1-12 из 12 [2013 WEB-DL 1080p] bober100 Скачать
1 | 0

28-11-2019 20:33  

Отключить всю рекламу на сайте

    Дорогой пользователь! Огромная просьба, поблагодарите релизера, оцените раздачу и оставьте свои комментарий, если Вы скачали Городские шпионы через торрент бесплатно! Внесите свою лепту в развитие PiratBit!
    Комментировать посты могут только пользователи прошедшие не сложную регистрацию
    Показать сообщения:    

    Городские шпионы через торрент
    Скачать бесплатно Городские шпионы
    Городские шпионы скачать торрент
    Городские шпионы смотреть онлайн
    Cкачать фильм Городские шпионы бесплатно
    Городские шпионы скачать торрент в хорошем качестве
    Городские шпионы смотреть онлайн бесплатно в хорошем качестве


    Вы не можете начинать темы
    Вы не можете отвечать на сообщения
    Вы не можете редактировать свои сообщения
    Вы не можете удалять свои сообщения
    Вы не можете голосовать в опросах
    Вы не можете прикреплять файлы к сообщениям
    Вы можете скачивать файлы