Ссылка на приватное зеркало нашего сайта всего за 1$. Внимание количество ограничено!!!

2 сезон

iTunes

1 сезон

1

iTunes

iTunes

iTunes

1 сезон

RePack

30

ИГРА 18+

pack

ВАЖНО

!!Акция!!

Alien_RageХит недели

RePack

MK11
pack

Забери бонус

RePack

jed

!!Акция!!

Alien_Rage

RePack

fifa19

RePack

Assassins Creed: Odyssey

RePack

NEED FOR SPEED™ PAYBACK

4 сезон

9 сезон

Бесстыжие 9 сезон

Все сериалы

все сериалы на PB.wtf

RePack

FAR CRY 5
  

Оперетта капитана Крутова / Сезон: 1 / Серии: 1-8 из 8 (Слава Росс) [2018, Детектив, комедия, мелодрама, WEB-DL 1080p] pb.wtf

Оперетта капитана Крутова через торрент pb.wtf

Размер: 16.49 GB | Добавлен: 1 год 4 мес. назад | Торрент скачан:27 раз
Скачать  

14-06-2019 14:37 Оперетта капитана Крутова Скачать торрент  

Оперетта капитана Крутова Год выпуска: 2018
Страна: Россия
Жанр: Детектив, комедия, мелодрама
Продолжительность: 8 x ~ 00:48:00
Перевод: Не требуется
Субтитры: отсутствуют

Режиссер: Слава Росс



В ролях:

Алексей Чадов, Юлия Снигирь, Сергей Пускепалис, Евгений Зеленский, Александр Ефимов, Алексей Кирсанов, Андрей Фомин (II), Сергей Черданцев, Алма Рулас, Евгения Соляных, Константин Тополага, Юрий Гумиров

Описание:

Успешный и подающий большие надежды актер кино Денис Калугин неожиданно для самого себя вынужден принять предложение продюсера и попадает на стажировку в обычный полицейский участок, чтобы набраться необходимого опыта до начала съемок телевизионного сериала, в котором ему досталась главная роль и создание которого курирует не какая-то кинокомпания , а Министерство внутренних дел, руководство которого не верит в реалистичность игры Дениса и требует немного «подучиться» у настоящих полицейских-профессионалов. Наставницей Дениса становится опытный опер Дарья Филатова, которая скрывает от всех коллег свою заветную мечту - попробовать себя на телевидении. Волею судьбы наши герои становятся очень нужными друг другу, ведь теперь Филатова имеет возможность без отрыва от основной деятельности научиться у талантливого актера тайнам заветной профессии, а он может узнать много интересного о работе полицейских и даже попробует свои силы в раскрытии запутанных преступлений.

Качество: WEB-DL 1080p
Формат: MKV

Видео: 1920х1080 (16:9), 25 fps, AVC MPEG-4 (x264), High@L4.0 ~ 6000 kbps avg, 0.096 bit/pixel
Аудио: AC3 Dolby Digital, 48.0 kHz, 2/0 (L,R) ch, 192 kbps
скриншот  скриншот  скриншот  скриншот  скриншот  

скриншот  скриншот  скриншот  скриншот  скриншот  

General
Unique ID : 250731015520760659973361664708440689996 (0xBCA1097DEE597DF0B08CBA671F5B0D4C)
Complete name : D:\Operetta.kapitana.Krutova.2017.WEB-DL.(1080p).Nikolspup\Operetta.kapitana.Krutova.(01.seriya.iz.08).2017.WEB-DL.(1080p).Nikolspup.mkv
Format : Matroska
Format version : Version 4 / Version 2
File size : 2.08 GiB
Duration : 48mn 7s
Overall bit rate mode : Constant
Overall bit rate : 6 175 Kbps
Encoded date : UTC 2018-01-14 02:09:48
Writing application : mkvmerge v7.8.0 ('River Man') 32bit built on Mar 27 2015 16:18:02
Writing library : libebml v1.3.1 + libmatroska v1.4.2
DURATION : 00:48:07.008000000
NUMBER_OF_FRAMES : 90219
NUMBER_OF_BYTES : 69288192
_STATISTICS_WRITING_APP : mkvmerge v7.8.0 ('River Man') 32bit built on Mar 27 2015 16:18:02
_STATISTICS_WRITING_DATE_UTC : 2018-01-14 02:09:48
_STATISTICS_TAGS : BPS DURATION NUMBER_OF_FRAMES NUMBER_OF_BYTES

Video
ID : 1
Format : AVC
Format/Info : Advanced Video Codec
Format profile : High@L4.1
Format settings, CABAC : No
Format settings, ReFrames : 2 frames
Codec ID : V_MPEG4/ISO/AVC
Duration : 48mn 7s
Bit rate mode : Constant
Bit rate : 6 000 Kbps
Width : 1 920 pixels
Height : 1 080 pixels
Display aspect ratio : 16:9
Frame rate mode : Constant
Frame rate : 25.000 fps
Standard : PAL
Color space : YUV
Chroma subsampling : 4:2:0
Bit depth : 8 bits
Scan type : Progressive
Bits/(Pixel*Frame) : 0.116
Stream size : 1.97 GiB (95%)
Default : Yes
Forced : No
Color primaries : BT.709
Transfer characteristics : BT.709
Matrix coefficients : BT.709

Audio
ID : 2
Format : AC-3
Format/Info : Audio Coding 3
Mode extension : CM (complete main)
Format settings, Endianness : Big
Codec ID : A_AC3
Duration : 48mn 7s
Bit rate mode : Constant
Bit rate : 192 Kbps
Channel count : 2 channels
Channel positions : Front: L R
Sampling rate : 48.0 KHz
Bit depth : 16 bits
Compression mode : Lossy
Stream size : 66.1 MiB (3%)
Default : Yes
Forced : No

pb.wtf



Скачать Оперетта капитана Крутова через торрент http://i99.fastpic.ru/big/2018/0116/89/5fe7c42445c0e4294f19c9aab7812a89.png Скачать фильм Оперетта капитана Крутова через торрент бесплантно в хорошем качестве Описание: Успешный и подающий большие надежды актер кино Денис Калугин неожиданно для самого себя вынужден принять предложение продюсера и ... 10 10 5
Торрент: Зарегистрирован [2019-06-14 14:37] · скачан: 27 раз
Статус: √ проверено
Размер: 16.49 GB
Как cкачать? Как скачать Оперетта капитана Крутова через торрент | qTorrent

% Раздел Тема Автор DL S | L
Наши сериалы [ 4.69 GB ] Оперетта капитана Крутова / Сезон 1 / Серии 1-8 из 8 [2018 HDTVRip] bober100 Скачать
1 | 0
Наши сериалы [ 4.95 GB ] Оперетта капитана Крутова / Сезон 1 / Серии 1-8 из 8 [2018 WEB-DLRip] bober100 Скачать
1 | 0

28-11-2019 20:33  

Отключить всю рекламу на сайте

    Дорогой пользователь! Огромная просьба, поблагодарите релизера, оцените раздачу и оставьте свои комментарий, если Вы скачали Оперетта капитана Крутова через торрент бесплатно! Внесите свою лепту в развитие PiratBit!
    Комментировать посты могут только пользователи прошедшие не сложную регистрацию
    Показать сообщения:    

    Оперетта капитана Крутова через торрент
    Скачать бесплатно Оперетта капитана Крутова
    Оперетта капитана Крутова скачать торрент
    Оперетта капитана Крутова смотреть онлайн
    Cкачать фильм Оперетта капитана Крутова бесплатно
    Оперетта капитана Крутова скачать торрент в хорошем качестве
    Оперетта капитана Крутова смотреть онлайн бесплатно в хорошем качестве


    Вы не можете начинать темы
    Вы не можете отвечать на сообщения
    Вы не можете редактировать свои сообщения
    Вы не можете удалять свои сообщения
    Вы не можете голосовать в опросах
    Вы не можете прикреплять файлы к сообщениям
    Вы можете скачивать файлы