Мега распродажа FORZA HORIZON 4 ULTIMATE+ВСЕ DLC+ОНЛАЙН всего за 499р. 349 руб. (супер цена). Внимание количество ограничено!!!

Лицензия

30

iTunes

мы

iTunes

1

1 сезон

Чернобыль

1 сезон

Ральф против интернета

MVO

Покемон. Детектив Пикачу

8 сезон

Игра престолов

iTunes

1+1

ИГРА 18+

pack

ВАЖНО

!!Акция!!

Alien_RageХит недели

RePack

Resident Evil 21
pack

RePack

Metro:Exodus

!!Акция!!

Alien_Rage

RePack

fifa19

RePack

Assassins Creed: Odyssey

RePack

NEED FOR SPEED™ PAYBACK

3 сезон

9 сезон

Бесстыжие 9 сезон

Все сериалы

все сериалы на PB.wtf

RePack

FAR CRY 5
Ребята, катастрофически не хватает 2730р. для оплаты серверов за МАЙ (всвязи с блокировками трафик упал в 3 раза), 1-2р., выручайте.
  

Слишком стар, чтобы умереть молодым / Too Old to Die Young / Сезон: 1 / Серии: 1-10 из 10 (Николас Виндинг Рефн) [2019, драма, криминал, WEBRip] MVO [Octopus] pb.wtf

Слишком стар, чтобы умереть молодым через торрент pb.wtf

Раздают: 5 [ 12 KB/s ]
Размер: 9.85 GB | Добавлен: 11 д. назад | Торрент скачан:51 раз
Скачать  

14-06-2019 16:25 Слишком стар, чтобы умереть молодым Скачать торрент  

Слишком стар, чтобы умереть молодым / Too Old to Die Young
Год выпуска: 2019
Страна: США
Жанр: драма, криминал
Продолжительность: ~ 01:22:00
Перевод: Любительский (многоголосый) | Octopus
Субтитры: отсутствуют

Режиссер: Николас Виндинг Рефн

rating


В ролях:

Майлз Теллер, Уильям Болдуин, Селестин Кориэль, Нелл Тайгер Фри, Александр Гомес, Джон Хоукс, Джена Мэлоун, Бабс Олусанмокун, Кристина Родло, Августо Агилера

Описание:

Полицейский Мартин во время службы убил «не ту женщину» и оказался вовлечён в гангстерский конфликт. Теперь подполье ждёт, что он искупит вину. Среди сторон - якудза, русская мафия, мексиканские наёмники и банды тинейджеров.

Качество: WEBRip
Формат: AVI

Видео: XviD, ~ 1500 Кбит/с, 720x384
Аудио: Русский, (AC3, 2 ch, 384 Кбит/с)
скриншот  скриншот  скриншот  

Общее
Полное имя : C:\Too.Old.To.Die.Young.s01.400p.Octopus\Too.Old.To.Die.Young.s01e01.400p.Octopus.avi
Формат : AVI
Формат/Информация : Audio Video Interleave
Размер файла : 1,23 Гбайт
Продолжительность : 1 ч. 33 м.
Общий поток : 1887 Кбит/сек
Программа кодирования : VirtualDubMod 1.5.10.3 | www.virtualdub-fr.org || (build 2550/release)
Библиотека кодирования : VirtualDubMod build 2550/release

Видео
Идентификатор : 0
Формат : MPEG-4 Visual
Профиль формата : Advanced Simple@L5
Параметр BVOP формата : 2
Параметр QPel формата : Нет
Параметр GMC формата : Без точки перехода
Параметр матрицы формата : Default (H.263)
Идентификатор кодека : XVID
Идентификатор кодека/Подсказка : XviD
Продолжительность : 1 ч. 33 м.
Битрейт : 1420 Кбит/сек
Ширина : 720 пикселей
Высота : 384 пикселя
Соотношение сторон : 1,85:1
Частота кадров : 23,976 (23976/1000) кадра/сек
Цветовое пространство : YUV
Субдискретизация насыщенности : 4:2:0
Битовая глубина : 8 бит
Тип развёртки : Прогрессивная
Метод сжатия : С потерями
Бит/(Пиксели*Кадры) : 0.214
Размер потока : 950 Мбайт (75%)
Библиотека кодирования : XviD 1.2.1 (UTC 2008-12-04)

Аудио
Идентификатор : 1
Формат : AC-3
Формат/Информация : Audio Coding 3
Расширение режима : CM (complete main)
Параметр Endianness формата : Big
Идентификатор кодека : 2000
Продолжительность : 1 ч. 33 м.
Вид битрейта : Постоянный
Битрейт : 384 Кбит/сек
Каналы : 2 канала
Расположение каналов : Front: L R
Частота : 48,0 КГц
Частота кадров : 31,250 кадров/сек (1536 spf)
Метод сжатия : С потерями
Размер потока : 257 Мбайт (20%)
Выравнивание : Разделение по промежуткам

pb.wtf



Скачать Слишком стар, чтобы умереть молодым через торрент https://d.radikal.ru/d17/1906/89/958283783d02.jpg Скачать фильм Слишком стар, чтобы умереть молодым через торрент бесплантно в хорошем качестве Описание: Полицейский Мартин во время службы убил «не ту женщину» и оказался вовлечён в гангстерский конфликт. Теперь подполье ждёт, что он ... 9.8 10 4
Торрент: Зарегистрирован [2019-06-14 16:25] · скачан: 51 раз
Статус: √ проверено
Размер: 9.85 GB
Как cкачать? Как скачать Слишком стар, чтобы умереть молодым через торрент | qTorrent

% Раздел Тема Автор DL S | L
Зарубежные сериалы [ 6.48 GB ] Слишком стар чтобы умереть молодым / Too Old to Die Young / Сезон: 1 / Серии: 1- из 10 [2019 WEBRip 1080p] MVO [TVShows] bober100 Скачать
1 | 0
Зарубежные сериалы [ 3.18 GB ] Слишком стар чтобы умереть молодым / Too Old to Die Young / Сезон: 1 / Серии: 1- из 10 [2019 WEBRip 720p] [MVO] killermax2013 Скачать
1 | 1
Фильмы без перевода [ 50.57 GB ] Слишком стар чтобы умереть молодым / Too Old to Die Young / Сезон: 1 / Серии: 1-10 из 10 [2019 WEBRip 1080p] [Sub] killermax2013 Скачать
1 | 1
Зарубежные сериалы [ 33.83 GB ] Слишком стар чтобы умереть молодым / Too Old to Die Young / Сезон: 1 / Серии: 1-10 из 10 [2019 WEBRip 1080p] MVO [Octopus] bober100 Скачать
1 | 0
Зарубежные сериалы [ 30.51 GB ] Слишком стар чтобы умереть молодым / Too Old to Die Young / Сезон: 1 / Серии: 1-10 из 10 [2019 WEBRip 720p] MVO [Octopus] bober100 Скачать
1 | 0


>> Регистрируемся здесь <<






Отзывы и комментарии о схеме читаем и пишем здесь: ---> Отзывы и комментарии о схеме

Новые благодарочки в телеграм довольных пользователей:
скриншот   скриншот   скриншот   скриншот   скриншот
    Дорогой пользователь! Огромная просьба, поблагодарите релизера, оцените раздачу и оставьте свои комментарий, если Вы скачали Слишком стар, чтобы умереть молодым через торрент бесплатно! Внесите свою лепту в развитие PiratBit!
    Комментировать посты могут только пользователи прошедшие не сложную регистрацию
    Показать сообщения:    

    Слишком стар, чтобы умереть молодым через торрент
    Скачать бесплатно Слишком стар, чтобы умереть молодым
    Слишком стар, чтобы умереть молодым скачать торрент
    Слишком стар, чтобы умереть молодым смотреть онлайн
    Cкачать фильм Слишком стар, чтобы умереть молодым бесплатно
    Слишком стар, чтобы умереть молодым скачать торрент в хорошем качестве
    Слишком стар, чтобы умереть молодым смотреть онлайн бесплатно в хорошем качестве


    Вы не можете начинать темы
    Вы не можете отвечать на сообщения
    Вы не можете редактировать свои сообщения
    Вы не можете удалять свои сообщения
    Вы не можете голосовать в опросах
    Вы не можете прикреплять файлы к сообщениям
    Вы можете скачивать файлы