MEGA SALE -50% FORZA HORIZON 4 ULTIMATE+ВСЕ DLC+ОНЛАЙН всего за 599р. 299 руб. (супер цена). Внимание количество ограничено!!!

iTunes

1+1

iTunes

мы

iTunes

1

iTunes

Чернобыль

iTunes

Ральф против интернета

Лицензия

ПШазам

Лицензия

Игра престолов

Лицензия

30
pack

ВАЖНО

!!Акция!!

Alien_RageХит недели

RePack

Resident Evil 21

ИГРА 18+

pack

RePack

Metro:Exodus

!!Акция!!

Alien_Rage

RePack

fifa19

RePack

Assassins Creed: Odyssey

RePack

NEED FOR SPEED™ PAYBACK

3 сезон

9 сезон

Бесстыжие 9 сезон

Все сериалы

все сериалы на PB.wtf

RePack

FAR CRY 5
Ребята, катастрофически не хватает 7730р. для оплаты серверов за АВГУСТ (всвязи с блокировками трафик упал в 3 раза), 1-2р., выручайте.
  

Слишком стар, чтобы умереть молодым / Too Old to Die Young / Сезон: 1 / Серии: 1-10 из 10 (Николас Виндинг Рефн) [2019, драма, криминал, WEBRip 720p] MVO [Octopus] pb.wtf

Слишком стар, чтобы умереть молодым через торрент pb.wtf

Размер: 30.51 GB | Добавлен: 3 мес. 6 д. назад | Торрент скачан:7 раз
Скачать  

14-06-2019 16:26 Слишком стар, чтобы умереть молодым Скачать торрент  

Слишком стар, чтобы умереть молодым / Too Old to Die Young
Год выпуска: 2019
Страна: США
Жанр: драма, криминал
Продолжительность: ~ 01:22:00
Перевод: Любительский (многоголосый) | Octopus
Субтитры: отсутствуют

Режиссер: Николас Виндинг Рефн

rating


В ролях:

Майлз Теллер, Уильям Болдуин, Селестин Кориэль, Нелл Тайгер Фри, Александр Гомес, Джон Хоукс, Джена Мэлоун, Бабс Олусанмокун, Кристина Родло, Августо Агилера

Описание:

Полицейский Мартин во время службы убил «не ту женщину» и оказался вовлечён в гангстерский конфликт. Теперь подполье ждёт, что он искупит вину. Среди сторон - якудза, русская мафия, мексиканские наёмники и банды тинейджеров.

Качество: WEBRip 720p
Формат: MKV

Видео: h.264, ~ 5500 Кбит/с, 1280x696
Аудио: Русский, (AC3, 2 ch, 384 Кбит/с)
скриншот  скриншот  скриншот  

Общее
Уникальный идентификатор : 204439480791089796732788244165589832682 (0x99CD9C9E138C97C9BFC895C31AB193EA)
Полное имя : C:\Too.Old.To.Die.Young.s01.720p.Octopus\Too.Old.To.Die.Young.s01e01.720p.Octopus.mkv
Формат : Matroska
Версия формата : Version 2
Размер файла : 3,78 Гбайт
Продолжительность : 1 ч. 33 м.
Общий поток : 5778 Кбит/сек
Дата кодирования : UTC 2019-06-14 08:33:52
Программа кодирования : mkvmerge v8.3.0 ('Over the Horizon') 32bit
Библиотека кодирования : libebml v1.3.1 + libmatroska v1.4.2

Видео
Идентификатор : 1
Формат : AVC
Формат/Информация : Advanced Video Codec
Профиль формата : High@L4.1
Параметр CABAC формата : Да
Параметр RefFrames формата : 4 кадра
Идентификатор кодека : V_MPEG4/ISO/AVC
Продолжительность : 1 ч. 33 м.
Битрейт : 5500 Кбит/сек
Ширина : 1280 пикселей
Высота : 696 пикселей
Соотношение сторон : 1,85:1
Режим частоты кадров : Постоянный
Частота кадров : 23,976 (24000/1001) кадра/сек
Цветовое пространство : YUV
Субдискретизация насыщенности : 4:2:0
Битовая глубина : 8 бит
Тип развёртки : Прогрессивная
Бит/(Пиксели*Кадры) : 0.257
Размер потока : 3,45 Гбайт (91%)
Библиотека кодирования : x264 core 142 r2431+42 c69a006 tMod [8-bit@all X86]
Настройки программы : cabac=1 / ref=4 / deblock=1:0:0 / analyse=0x3:0x133 / me=umh / subme=2 / psy=1 / fade_compensate=0.00 / psy_rd=1.00:0.00 / mixed_ref=1 / me_range=16 / chroma_me=1 / trellis=2 / 8x8dct=1 / cqm=0 / deadzone=21,11 / fast_pskip=0 / chroma_qp_offset=-2 / threads=24 / lookahead_threads=5 / sliced_threads=0 / nr=0 / decimate=1 / interlaced=0 / bluray_compat=0 / constrained_intra=0 / fgo=0 / bframes=2 / b_pyramid=2 / b_adapt=2 / b_bias=0 / direct=1 / weightb=1 / open_gop=0 / weightp=2 / keyint=240 / keyint_min=23 / scenecut=40 / intra_refresh=0 / rc=abr / mbtree=0 / bitrate=5500 / ratetol=1.0 / qcomp=0.60 / qpmin=0:0:0 / qpmax=69:69:69 / qpstep=4 / ip_ratio=1.40 / pb_ratio=1.30 / aq=1:1.00 / aq-sensitivity=10.00 / aq-factor=1.00:1.00:1.00 / aq2=0 / aq3=0
Default : Да
Forced : Нет

Аудио
Идентификатор : 2
Формат : AC-3
Формат/Информация : Audio Coding 3
Расширение режима : CM (complete main)
Параметр Endianness формата : Big
Идентификатор кодека : A_AC3
Продолжительность : 1 ч. 33 м.
Вид битрейта : Постоянный
Битрейт : 384 Кбит/сек
Каналы : 2 канала
Расположение каналов : Front: L R
Частота : 48,0 КГц
Частота кадров : 31,250 кадров/сек (1536 spf)
Метод сжатия : С потерями
Размер потока : 257 Мбайт (7%)
Default : Да
Forced : Нет

pb.wtf



Скачать Слишком стар, чтобы умереть молодым через торрент https://d.radikal.ru/d17/1906/89/958283783d02.jpg Скачать фильм Слишком стар, чтобы умереть молодым через торрент бесплантно в хорошем качестве Описание: Полицейский Мартин во время службы убил «не ту женщину» и оказался вовлечён в гангстерский конфликт. Теперь подполье ждёт, что он ... 10 10 3
Торрент: Зарегистрирован [2019-06-14 16:26] · скачан: 7 раз
Статус: √ проверено
Размер: 30.51 GB
Как cкачать? Как скачать Слишком стар, чтобы умереть молодым через торрент | qTorrent

% Раздел Тема Автор DL S | L
Зарубежные сериалы [ 53.96 GB ] Слишком стар чтобы умереть молодым / Too Old to Die Young / Сезон: 1 / Серии: 1-10 из 10 [2019 WEB-DL 1080p] MVO [Lostfilm] bober100 Скачать
1 | 1
Зарубежные сериалы [ 9.16 GB ] Слишком стар чтобы умереть молодым / Too Old to Die Young / Сезон: 1 / Серии: 1-8 из 10 [2019 WEB-DLRip] MVO [Lostfilm] bober100 Скачать
2 | 1
Зарубежные сериалы [ 27.15 GB ] Слишком стар чтобы умереть молодым / Too Old to Die Young / Сезон: 1 / Серии: 1-10 из 10 [2019 WEB-DL 720p] MVO [Lostfilm] bober100 Скачать
1 | 0
Зарубежные сериалы [ 27.15 GB ] Слишком стар чтобы умереть молодым / Too Old to Die Young / Сезон: 1 / Серии: 1-10 из 10 [2019 WEBRip 720p] [MVO] killermax2013 Скачать
1 | 0
Зарубежные сериалы [ 10.57 GB ] Слишком стар чтобы умереть молодым / Too Old to Die Young / Сезон: 1 / Серии: 1-10 из 10 [2019 . WEB-DLRip] [MVO] killermax2013 Скачать
3 | 0
Зарубежные сериалы [ 52.6 GB ] Слишком стар чтобы умереть молодым / Too Old to Die Young / Сезон: 1 / Серии: 1-10 из 10 [2019 WEBRip 1080p] MVO [TVShows] bober100 Скачать
2 | 0
Фильмы без перевода [ 50.57 GB ] Слишком стар чтобы умереть молодым / Too Old to Die Young / Сезон: 1 / Серии: 1-10 из 10 [2019 WEBRip 1080p] [Sub] killermax2013 Скачать
1 | 0


>> Регистрируемся здесь <<






Отзывы и комментарии о схеме читаем и пишем здесь: ---> Отзывы и комментарии о схеме

Новые благодарочки в телеграм довольных пользователей:
скриншот   скриншот   скриншот   скриншот   скриншот

12-07-2019 06:19 Слишком стар, чтобы умереть молодым Скачать торрент  

    Дорогой пользователь! Огромная просьба, поблагодарите релизера, оцените раздачу и оставьте свои комментарий, если Вы скачали Слишком стар, чтобы умереть молодым через торрент бесплатно! Внесите свою лепту в развитие PiratBit!
    Комментировать посты могут только пользователи прошедшие не сложную регистрацию
    Показать сообщения:    

    Слишком стар, чтобы умереть молодым через торрент
    Скачать бесплатно Слишком стар, чтобы умереть молодым
    Слишком стар, чтобы умереть молодым скачать торрент
    Слишком стар, чтобы умереть молодым смотреть онлайн
    Cкачать фильм Слишком стар, чтобы умереть молодым бесплатно
    Слишком стар, чтобы умереть молодым скачать торрент в хорошем качестве
    Слишком стар, чтобы умереть молодым смотреть онлайн бесплатно в хорошем качестве


    Вы не можете начинать темы
    Вы не можете отвечать на сообщения
    Вы не можете редактировать свои сообщения
    Вы не можете удалять свои сообщения
    Вы не можете голосовать в опросах
    Вы не можете прикреплять файлы к сообщениям
    Вы можете скачивать файлы