Мега распродажа FORZA HORIZON 4 ULTIMATE+ВСЕ DLC+ОНЛАЙН всего за 499р. 349 руб. (супер цена). Внимание количество ограничено!!!

Лицензия

30

iTunes

мы

iTunes

1

1 сезон

Чернобыль

1 сезон

Ральф против интернета

MVO

Покемон. Детектив Пикачу

8 сезон

Игра престолов

iTunes

1+1

ИГРА 18+

pack

ВАЖНО

!!Акция!!

Alien_RageХит недели

RePack

Resident Evil 21
pack

RePack

Metro:Exodus

!!Акция!!

Alien_Rage

RePack

fifa19

RePack

Assassins Creed: Odyssey

RePack

NEED FOR SPEED™ PAYBACK

3 сезон

9 сезон

Бесстыжие 9 сезон

Все сериалы

все сериалы на PB.wtf

RePack

FAR CRY 5
Ребята, катастрофически не хватает 2730р. для оплаты серверов за МАЙ (всвязи с блокировками трафик упал в 3 раза), 1-2р., выручайте.
  

Наша планета / Our Planet / Сезон: 1 / Серии: 1-8 из 8 (Адам Чэпман, Хью Пирсон, Хув Корди) [2019, документальный, UHD WEBRip 2160p] [SDR] VO [АРК-ТВ Studio] pb.wtf

Наша планета через торрент pb.wtf

Размер: 119.92 GB | Добавлен: 11 д. назад | Торрент скачан:0 раз
Скачать  

14-06-2019 16:31 Наша планета Скачать торрент  

Наша планета / Our Planet

Год выпуска: 2019
Страна: США
Жанр: документальный
Продолжительность: 8 x 00:50:00
Перевод: Профессиональный одноголосый
Субтитры: Русские, английские
Режиссер: Адам Чэпман, Хью Пирсон, Хув Корди
В ролях: Дэвид Аттенборо
Описание:
Сериал от создателей "Планеты Земля" отправляет зрителей в беспрецедентное путешествие по самым ценным природным местам обитания в мире. Испытайте естественную красоту нашей планеты и изучите, как изменение климата влияет на все живые существа в этом амбициозном документальном фильме впечатляющего масштаба.
Рейтинг:

Качество: UHD WEBRip 2160p
Формат: MKV
Видео: MPEG-4 AVC, 3840x2160, 23.976 fps, ~35000 kbps
Аудио#1: Russian: 48 kHz, E-AC3, 3/2 (L,C,R,l,r) + LFE ch, ~640 kbps avg |Одноголосый закадровый, Игорь Тарадайкин / АРК-ТВ Studio|
Аудио#2: English: 48 kHz, E-AC3 Atmos, 3/2 (L,C,R,l,r) + LFE ch, ~768 kbps avg

Релиз
1. Одна планета | One Planet
2. Замёрзшие миры | Frozen Worlds
3. Джунгли | Jungles
4. Прибрежные моря | Coastal Seas
5. От пустынь к лугам | From Deserts to Grasslands
6. Открытые моря | The High Seas
7. Свежая вода | Fresh Water
8. Леса | Forests
Общее
Уникальный идентификатор : 21275930378317764371058167100931020596 (0x1001985B299C754AADFC48C4F5079734)
Полное имя : D:\кино\TeamHD\Our.Planet.2019.2160p.SDR.S01.WEBRip\Our.Planet.2019.2160p.SDR.S01E03.WEBRip.mkv
Формат : Matroska
Версия формата : Version 4
Размер файла : 15,6 Гбайт
Продолжительность : 51 м. 19 с.
Общий поток : 43,6 Мбит/сек
Дата кодирования : UTC 2019-04-09 10:57:33
Программа кодирования : mkvmerge v30.1.0 ('Forever And More') 64-bit
Библиотека кодирования : libebml v1.3.6 + libmatroska v1.4.9
Обложка : Yes
Attachments : cover.jpg

Видео
Идентификатор : 1
Формат : AVC
Формат/Информация : Advanced Video Codec
Профиль формата : High@L5.1
Настройки формата : CABAC / 5 Ref Frames
Параметр CABAC формата : Да
Параметр RefFrames формата : 5 кадров
Идентификатор кодека : V_MPEG4/ISO/AVC
Продолжительность : 50 м. 58 с.
Битрейт : 42,5 Мбит/сек
Ширина : 3840 пикселей
Высота : 2160 пикселей
Соотношение сторон : 16:9
Режим частоты кадров : Постоянный
Частота кадров : 23,976 (24000/1001) кадра/сек
Цветовое пространство : YUV
Субдискретизация насыщенности : 4:2:0
Битовая глубина : 8 бит
Тип развёртки : Прогрессивная
Бит/(Пиксели*Кадры) : 0.214
Размер потока : 15,1 Гбайт (97%)
Заголовок : WEBRip.2160p.SDR by Silverok
Библиотека кодирования : x264 core 148 r2744 b97ae06
Настройки программы : cabac=1 / ref=5 / deblock=1:-3:-3 / analyse=0x3:0x133 / me=umh / subme=10 / psy=1 / psy_rd=1.00:0.00 / mixed_ref=1 / me_range=48 / chroma_me=1 / trellis=2 / 8x8dct=1 / cqm=0 / deadzone=21,11 / fast_pskip=0 / chroma_qp_offset=-2 / threads=24 / lookahead_threads=4 / sliced_threads=0 / nr=0 / decimate=0 / interlaced=0 / bluray_compat=0 / constrained_intra=0 / bframes=9 / b_pyramid=0 / b_adapt=2 / b_bias=0 / direct=3 / weightb=1 / open_gop=0 / weightp=2 / keyint=250 / keyint_min=23 / scenecut=40 / intra_refresh=0 / rc_lookahead=60 / rc=crf / mbtree=0 / crf=19.0 / qcomp=0.60 / qpmin=10 / qpmax=51 / qpstep=4 / vbv_maxrate=300000 / vbv_bufsize=300000 / crf_max=0.0 / nal_hrd=none / filler=0 / ip_ratio=1.40 / pb_ratio=1.30 / aq=3:0.75
Default : Да
Forced : Нет

Аудио #1
Идентификатор : 2
Формат : E-AC-3
Формат/Информация : Enhanced AC-3
Коммерческое название : Dolby Digital Plus
Идентификатор кодека : A_EAC3
Продолжительность : 51 м. 19 с.
Вид битрейта : Постоянный
Битрейт : 640 Кбит/сек
Каналы : 6 каналов
Channel layout : L R C LFE Ls Rs
Частота : 48,0 КГц
Частота кадров : 31,250 кадров/сек (1536 SPF)
Метод сжатия : С потерями
Задержка видео : 31 мс.
Размер потока : 235 Мбайт (1%)
Заголовок : Одноголосый закадровый, Игорь Тарадайкин / АРК-ТВ Studio
Язык : Russian
ServiceKind/String : Complete Main
Default : Да
Forced : Нет

Аудио #2
Идентификатор : 3
Формат : E-AC-3 JOC
Формат/Информация : Enhanced AC-3 with Joint Object Coding
Коммерческое название : Dolby Digital Plus with Dolby Atmos
Идентификатор кодека : A_EAC3
Продолжительность : 50 м. 58 с.
Вид битрейта : Постоянный
Битрейт : 768 Кбит/сек
Каналы : 6 каналов
Channel layout : L R C LFE Ls Rs
Частота : 48,0 КГц
Частота кадров : 31,250 кадров/сек (1536 SPF)
Метод сжатия : С потерями
Размер потока : 280 Мбайт (2%)
Язык : English
ServiceKind/String : Complete Main
Default : Нет
Forced : Нет
Complexity index : 16
Number of dynamic objects : 15
Bed channel count : 1 канал
Bed channel configuration : LFE

Текст #1
Идентификатор : 4
Формат : UTF-8
Идентификатор кодека : S_TEXT/UTF8
Идентификатор кодека/Информация : UTF-8 Plain Text
Продолжительность : 50 м. 41 с.
Битрейт : 82 бит/сек
ElementCount : 424
Размер потока : 30,5 Кбайт (0%)
Заголовок : Full
Язык : Russian
Default : Да
Forced : Нет

Текст #2
Идентификатор : 5
Формат : UTF-8
Идентификатор кодека : S_TEXT/UTF8
Идентификатор кодека/Информация : UTF-8 Plain Text
Продолжительность : 50 м. 6 с.
Битрейт : 49 бит/сек
ElementCount : 437
Размер потока : 18,3 Кбайт (0%)
Заголовок : Full
Язык : English
Default : Нет
Forced : Нет
pb.wtf



Скачать Наша планета через торрент https://d.radikal.ru/d26/1906/9e/b8cbb1680bc6.png Скачать фильм Наша планета через торрент бесплантно в хорошем качестве Описание: Сериал от создателей "Планеты Земля" отправляет зрителей в беспрецедентное путешествие по самым ценным природным местам обитания ... 10 10 3
Info! Золотая раздача, скачанное не засчитывается.
Торрент: Зарегистрирован [2019-06-14 16:31] · скачан: 0 раз
Статус: √ проверено
Размер: 119.92 GB
Как cкачать? Как скачать Наша планета через торрент | qTorrent

% Раздел Тема Автор DL S | L
Научно-популярные фильмы [ 43.61 GB ] Наша планета / Our Planet Сезон: 1 / Серии: 1-8 из 8 [2019 документальный HDR HEVC WEBRip 1080p] [VO] killermax2013 Скачать
2 | 1


>> Регистрируемся здесь <<






Отзывы и комментарии о схеме читаем и пишем здесь: ---> Отзывы и комментарии о схеме

Новые благодарочки в телеграм довольных пользователей:
скриншот   скриншот   скриншот   скриншот   скриншот
    Дорогой пользователь! Огромная просьба, поблагодарите релизера, оцените раздачу и оставьте свои комментарий, если Вы скачали Наша планета через торрент бесплатно! Внесите свою лепту в развитие PiratBit!
    Комментировать посты могут только пользователи прошедшие не сложную регистрацию
    Показать сообщения:    

    Наша планета через торрент
    Скачать бесплатно Наша планета
    Наша планета скачать торрент
    Наша планета смотреть онлайн
    Cкачать фильм Наша планета бесплатно
    Наша планета скачать торрент в хорошем качестве
    Наша планета смотреть онлайн бесплатно в хорошем качестве


    Вы не можете начинать темы
    Вы не можете отвечать на сообщения
    Вы не можете редактировать свои сообщения
    Вы не можете удалять свои сообщения
    Вы не можете голосовать в опросах
    Вы не можете прикреплять файлы к сообщениям
    Вы можете скачивать файлы