MEGA SALE -50% FORZA HORIZON 4 ULTIMATE+ВСЕ DLC+ОНЛАЙН всего за 599р. 299 руб. (супер цена). Внимание количество ограничено!!!

iTunes

1+1

iTunes

мы

iTunes

1

iTunes

Чернобыль

iTunes

Ральф против интернета

Лицензия

ПШазам

Лицензия

Игра престолов

Лицензия

30
pack

ВАЖНО

!!Акция!!

Alien_RageХит недели

RePack

Resident Evil 21

ИГРА 18+

pack

RePack

Metro:Exodus

!!Акция!!

Alien_Rage

RePack

fifa19

RePack

Assassins Creed: Odyssey

RePack

NEED FOR SPEED™ PAYBACK

3 сезон

9 сезон

Бесстыжие 9 сезон

Все сериалы

все сериалы на PB.wtf

RePack

FAR CRY 5
Ребята, катастрофически не хватает 7730р. для оплаты серверов за АВГУСТ (всвязи с блокировками трафик упал в 3 раза), 1-2р., выручайте.
  

Мальчики-налетчики / Takers (Джон Льюсенхоп) [2010 г., боевик, криминал, BDRemux 1080p] DUB + 2xAVO - KORSAR pb.wtf

Мальчики-налетчики через торрент pb.wtf

Размер: 25.73 GB | Добавлен: 3 мес. 6 д. назад | Торрент скачан:7 раз
Скачать  

14-06-2019 17:00 Мальчики-налетчики Скачать торрент  

Название: Мальчики-налетчики
Оригинальное название: Takers
Год выпуска: 2010
Выпущено: США, Grand Hustle Entertainment, Overbrook Entertainment, Rainforest Films, Screen Gems
Жанр: Боевик, криминал
Режиссёр: Джон Льюсенхоп
Продолжительность: 01:47:05
Перевод: Дублированный, авторский одноголосый
В ролях: Пол Уокер, Хейден Кристенсен, Мэтт Диллон, Зои Салдана, Марианн Жан-Баптист, Крис Браун, Майкл Или, Идрис Эльба, Стив Харрис, Ти Ай, Джей Эрнандес, Джонатон Шаех, Гай Чарльз, Гидеон Эмери, Зулай Хенао, Глинн Тёрмен

О фильме: В Лос-Анджелесе действует банда из пяти удачливых профессиональных грабителей банков. Они крутые, дерзкие, расчетливые, вооружены автоматическим оружием, а способы их отхода просто завораживают. Вскоре к Джону, Ей Джею, Гордону, Джеси и Джейку присоединяется Призрак, освободившийся из тюрьмы. Он предлагает "ограбление века", но на планирование операции остаётся пять дней, а затем будет изменен маршрут банковского броневика. Наши грабители так не работают, однако соблазн ценой в 25-30 миллионов долларов слишком велик и они соглашаются. Возникает вопрос: Призрак хочет помочь нашим героям или отомстить за то, что бросили его истекать кровью.

rating

Качество: BDRemux 1080p
Контейнер: MKV
Видео: MPEG-4 AVC, 1920x1080, 25231 kbps, 23.976 fps
Аудио 1: Russian: 48 kHz, Dolby Digital Audio, 5.1 ch, 640 kbps - DUB, Blu-ray CEE
Аудио 2: Russian: 48 kHz, Dolby Digital Audio, 5.1 ch, 448 kbps - AVO, М. Яроцкий
Аудио 3: Russian: 48 kHz, DTS-HD Ma Audio, 5.1 ch, 4049 kbps - AVO, А. Гаврилов
Аудио 4: English: 48 kHz, DTS-HD Ma Audio, 5.1 ch, 4017 kbps - Оригинал
Субтитры: Русские, английские
Навигация по главам: Есть
  • Дорога №3 получена микшированием чистого голоса с центром декодированного DTS-HD MA оригинала. Фразы перевода тщательно расставлены относительно оригинальных с нужной задержкой и коррекцией относительной громкости.
  • скриншот  скриншот  скриншот  скриншот  скриншот  
    Общее
    Уникальный идентификатор : 203823114668357857421681797196204798555 (0x9956E76BE03E40B2BA40933DFAB8F25B)
    Полное имя : Takers.2010.BDRemux.1080p.KORSAR.mkv
    Формат : Matroska
    Версия формата : Version 4 / Version 2
    Размер файла : 25,7 Гбайт
    Продолжительность : 1 ч. 47 м.
    Режим общего битрейта : Переменный
    Общий поток : 34,4 Мбит/сек
    Название фильма : Takers.2010.BDRemux.1080p.KORSAR
    Дата кодирования : UTC 2019-01-03 16:14:00
    Программа кодирования : mkvmerge v7.8.0 ('River Man') 32bit built on Apr 3 2015 12:11:22
    Библиотека кодирования : libebml v1.3.1 + libmatroska v1.4.2

    Видео
    Идентификатор : 1
    Формат : AVC
    Формат/Информация : Advanced Video Codec
    Профиль формата : High@L4.1
    Параметр CABAC формата : Да
    Параметр RefFrames формата : 2 кадра
    Параметр GOP формата : M=1, N=10
    Идентификатор кодека : V_MPEG4/ISO/AVC
    Продолжительность : 1 ч. 47 м.
    Вид битрейта : Переменный
    Битрейт : 25,2 Мбит/сек
    Ширина : 1920 пикселей
    Высота : 1080 пикселей
    Соотношение сторон : 16:9
    Режим частоты кадров : Постоянный
    Частота кадров : 23,976 (24000/1001) кадра/сек
    Цветовое пространство : YUV
    Субдискретизация насыщенности : 4:2:0
    Битовая глубина : 8 бит
    Тип развёртки : Прогрессивная
    Бит/(Пиксели*Кадры) : 0.507
    Размер потока : 18,9 Гбайт (73%)
    Заголовок : Takers.2010.BDRemux.1080p.KORSAR
    Язык : English
    Default : Да
    Forced : Нет

    Аудио #1
    Идентификатор : 2
    Формат : AC-3
    Формат/Информация : Audio Coding 3
    Параметр Endianness формата : Big
    Идентификатор кодека : A_AC3
    Продолжительность : 1 ч. 47 м.
    Вид битрейта : Постоянный
    Битрейт : 640 Кбит/сек
    Каналы : 6 каналов
    Расположение каналов : Front: L C R, Side: L R, LFE
    Частота : 48,0 КГц
    Частота кадров : 31,250 кадров/сек (1536 SPF)
    Битовая глубина : 16 бит
    Метод сжатия : С потерями
    Размер потока : 490 Мбайт (2%)
    Заголовок : DUB, Blu-ray CEE
    Язык : Russian
    Default : Да
    Forced : Нет

    Аудио #2
    Идентификатор : 3
    Формат : AC-3
    Формат/Информация : Audio Coding 3
    Параметр Endianness формата : Big
    Идентификатор кодека : A_AC3
    Продолжительность : 1 ч. 47 м.
    Вид битрейта : Постоянный
    Битрейт : 448 Кбит/сек
    Каналы : 6 каналов
    Расположение каналов : Front: L C R, Side: L R, LFE
    Частота : 48,0 КГц
    Частота кадров : 31,250 кадров/сек (1536 SPF)
    Битовая глубина : 16 бит
    Метод сжатия : С потерями
    Размер потока : 343 Мбайт (1%)
    Заголовок : AVO, М. Яроцкий
    Язык : Russian
    Default : Нет
    Forced : Нет

    Аудио #3
    Идентификатор : 4
    Формат : DTS
    Формат/Информация : Digital Theater Systems
    Профиль формата : MA / Core
    Режим : 16
    Параметр Endianness формата : Big
    Идентификатор кодека : A_DTS
    Продолжительность : 1 ч. 47 м.
    Вид битрейта : Переменный / Постоянный
    Битрейт : 4049 Кбит/сек / 1509 Кбит/сек
    Каналы : 6 каналов
    Расположение каналов : Front: L C R, Side: L R, LFE
    Частота : 48,0 КГц
    Частота кадров : 93,750 кадра/сек (512 SPF)
    Битовая глубина : 24 бит
    Метод сжатия : Без потерь / Lossy
    Задержка видео : 21 мс.
    Размер потока : 3,03 Гбайт (12%)
    Заголовок : AVO, А. Гаврилов
    Язык : Russian
    Default : Нет
    Forced : Нет

    Аудио #4
    Идентификатор : 5
    Формат : DTS
    Формат/Информация : Digital Theater Systems
    Профиль формата : MA / Core
    Режим : 16
    Параметр Endianness формата : Big
    Идентификатор кодека : A_DTS
    Продолжительность : 1 ч. 47 м.
    Вид битрейта : Переменный / Постоянный
    Битрейт : 4017 Кбит/сек / 1509 Кбит/сек
    Каналы : 6 каналов
    Расположение каналов : Front: L C R, Side: L R, LFE
    Частота : 48,0 КГц
    Частота кадров : 93,750 кадра/сек (512 SPF)
    Битовая глубина : 24 бит
    Метод сжатия : Без потерь / Lossy
    Размер потока : 3,00 Гбайт (12%)
    Заголовок : Оригинал
    Язык : English
    Default : Нет
    Forced : Нет

    Текст #1
    Идентификатор : 6
    Формат : UTF-8
    Идентификатор кодека : S_TEXT/UTF8
    Идентификатор кодека/Информация : UTF-8 Plain Text
    Продолжительность : 1 ч. 40 м.
    Битрейт : 91 бит/сек
    ElementCount : 1188
    Размер потока : 67,5 Кбайт (0%)
    Заголовок : Full
    Язык : Russian
    Default : Нет
    Forced : Нет

    Текст #2
    Идентификатор : 7
    Формат : UTF-8
    Идентификатор кодека : S_TEXT/UTF8
    Идентификатор кодека/Информация : UTF-8 Plain Text
    Продолжительность : 1 ч. 40 м.
    Битрейт : 62 бит/сек
    ElementCount : 1279
    Размер потока : 46,5 Кбайт (0%)
    Заголовок : Full
    Язык : English
    Default : Нет
    Forced : Нет

    Меню
    00:00:00.000 : en:Chapter 1
    00:04:13.169 : en:Chapter 2
    00:14:54.559 : en:Chapter 3
    00:20:07.623 : en:Chapter 4
    00:24:03.482 : en:Chapter 5
    00:32:46.172 : en:Chapter 6
    00:35:20.076 : en:Chapter 7
    00:44:19.447 : en:Chapter 8
    00:52:50.250 : en:Chapter 9
    00:58:38.556 : en:Chapter 10
    01:02:27.702 : en:Chapter 11
    01:06:16.764 : en:Chapter 12
    01:13:14.680 : en:Chapter 13
    01:19:49.408 : en:Chapter 14
    01:23:39.389 : en:Chapter 15
    01:30:36.470 : en:Chapter 16

    Релиз от: pb.wtf



    Скачать Мальчики-налетчики через торрент https://i6.imageban.ru/out/2019/01/04/d5bc1b829ee21221c43cc66533692306.png Скачать фильм Мальчики-налетчики через торрент бесплантно в хорошем качестве О фильме: В Лос-Анджелесе действует банда из пяти удачливых профессиональных грабителей банков. Они крутые, дерзкие, расчетливые, вооружены ... 10 10 1
    Info! Золотая раздача, скачанное не засчитывается.
    Торрент: Зарегистрирован [2019-06-14 17:00] · скачан: 7 раз
    Статус: √ проверено
    Размер: 25.73 GB
    Как cкачать? Как скачать Мальчики-налетчики через торрент | qTorrent



    Последний раз редактировалось: kisa1980 (2019-07-05 13:58), всего редактировалось 3 раз(а)


    >> Регистрируемся здесь <<






    Отзывы и комментарии о схеме читаем и пишем здесь: ---> Отзывы и комментарии о схеме

    Новые благодарочки в телеграм довольных пользователей:
    скриншот   скриншот   скриншот   скриншот   скриншот

    14-06-2019 17:41 Мальчики-налетчики Скачать торрент  

    14-06-2019 17:41 Мальчики-налетчики Скачать торрент  

    Топик был перенесен из форума Фильмы (Blu-ray, BD-Remux, HDDVD) в форум Оформление раздач (Кино, Видео и ТВ)


    bober100pb.wtf



      Дорогой пользователь! Огромная просьба, поблагодарите релизера, оцените раздачу и оставьте свои комментарий, если Вы скачали Мальчики-налетчики через торрент бесплатно! Внесите свою лепту в развитие PiratBit!
      Комментировать посты могут только пользователи прошедшие не сложную регистрацию
      Показать сообщения:    

      Мальчики-налетчики через торрент
      Скачать бесплатно Мальчики-налетчики
      Мальчики-налетчики скачать торрент
      Мальчики-налетчики смотреть онлайн
      Cкачать фильм Мальчики-налетчики бесплатно
      Мальчики-налетчики скачать торрент в хорошем качестве
      Мальчики-налетчики смотреть онлайн бесплатно в хорошем качестве


      Вы не можете начинать темы
      Вы не можете отвечать на сообщения
      Вы не можете редактировать свои сообщения
      Вы не можете удалять свои сообщения
      Вы не можете голосовать в опросах
      Вы не можете прикреплять файлы к сообщениям
      Вы можете скачивать файлы