Ссылка на приватное зеркало нашего сайта всего за 1$. Внимание количество ограничено!!!

2 сезон

iTunes

1 сезон

1

2 сезон

2 сезон

iTunes

1 сезон

RePack

30

Новинка

ВАЖНО

ИГРА 18+

pack

RePack

MK11
pack

Забери бонус

RePack

jed

!!Акция!!

Alien_Rage

RePack

fifa19

RePack

Assassins Creed: Odyssey

RePack

NEED FOR SPEED™ PAYBACK

4 сезон

9 сезон

Бесстыжие 9 сезон

Все сериалы

все сериалы на PB.wtf

RePack

FAR CRY 5
  

Оз: Великий и Ужасный / Oz the Great and Powerful (Сэм Рэйми) [2013, фэнтези, приключения, комедия, семейный, BDRip-HEVC 1080p, (10bit)] DUB [Лицензия] pb.wtf

Оз: Великий и Ужасный через торрент pb.wtf

Размер: 6.31 GB | Добавлен: 1 год 5 мес. назад | Торрент скачан:101 раз
Скачать  

14-06-2019 18:29 Оз: Великий и Ужасный Скачать торрент  

Оз: Великий и Ужасный / Oz the Great and Powerful
Год выпуска: 2013
Страна: США
Жанр: фэнтези, приключения, комедия, семейный
Продолжительность: 02:10:29
Перевод: Дублированный | Лицензия
Субтитры: Русские форсированные и полные (SRT), English full (SRT)

Режиссер: Сэм Рэйми

rating

В ролях:
    Джеймс Франко, Мишель Уильямс, Мила Кунис, Рейчел Вайс, Зак Брафф, Билл Коббс, Тони Кокс, Джои Кинг, Стивен Р. Харт, Эбигейл Спенсер, Брюс Кэмпбелл, Тед Рэйми

Описание:

Когда ураган забрасывает циркового фокусника Оскара Диггса из пыльного Канзаса в волшебную страну Оз, склонный к мошенничеству циркач полагает, что он поймал удачу за хвост — ведь с помощью своих трюков он с легкостью может добыть в новых землях и славу и богатство.

Однако его ждёт встреча с тремя чародейками, Теодорой, Эванорой и Глиндой, которые сомневаются в том, тот ли это великий волшебник, появления которого ждали легковерные жители страны Оз. Волей-неволей, пришелец оказывается втянутым в противостояние эпического масштаба, и ему приходится использовать весь свой «магический» арсенал, с добавлением толики настоящего волшебства.

В ситуации выбора между Добром и Злом, Оскару Диггсу предстоит не только стать Великим и Ужасным Волшебником из Страны Оз, но и немного измениться к лучшему.

Качество: BDRip-HEVC 1080p
Формат: MKV

Видео: 1920x800 (2,40:1), 5644 кбит/сек, 0.153 бит/(Пиксели*Кадры), 23.976 (24000/1001) кадр/сек, HEVC (Main10@L.4.1@High) 10 бит
Аудио#1: AC3, 6 ch, 640 Kbps - русский Дублированный
Аудио#2: AC3, 6 ch, 640 Kbps - english Original
скриншот  скриншот  скриншот  скриншот  

x265 info: frame I: 785, Avg QP:16.06 kb/s: 21570.23
x265 info: frame P: 40293, Avg QP:17.62 kb/s: 11894.04
x265 info: frame B: 146654, Avg QP:19.71 kb/s: 3841.07
x265 info: Weighted P-Frames: Y:6.2% UV:4.7%
x265 info: Weighted B-Frames: Y:6.4% UV:4.6%
x265 info: consecutive B-frames: 5.7% 5.2% 6.1% 46.5% 8.7% 15.5% 4.0% 5.5% 1.1% 1.0% 0.3% 0.4%
x265 info: encoded 187732 frames in 174797.87s (1.07 fps), 5643.62 kb/s, Avg QP:19.25

Формат : Matroska
Версия формата : Version 4
Размер файла : 6,31 Гбайт
Продолжительность : 2 ч. 10 м.
Общий поток : 6927 Кбит/сек
Название фильма : Оз: Великий и Ужасный
Дата кодирования : UTC 2019-06-14 14:41:47
Программа кодирования : mkvmerge v34.0.0 ('Sight and Seen') 64-bit
Библиотека кодирования : libebml v1.3.7 + libmatroska v1.5.0 / Lavf57.71.100
Attachments : poster.jpg
ACTORS : Джеймс Франко, Мишель Уильямс,
COUNTRY : США
DATE : 2013
DIRECTOR : Сэм Рэйми
ENCODING_INFO : MATROSKA,WEBM > MKV / H264 > X265 CRF 19.0 Very Slow / AC3 > COPY Безопасное / AC3 > COPY Безопасное / DTS-HD MA > AC3 CBR 864kbps
GENRE : Фэнтези, Приключения, Комедия
HD_VIDEO : 1
Язык : und
MEDIA_TYPE : 9
ORIGINAL_TITLE : Oz the Great and Powerful

Видео
Идентификатор : 1
Формат : HEVC
Формат/Информация : High Efficiency Video Coding
Профиль формата : Main 10@L4.1@High
Идентификатор кодека : V_MPEGH/ISO/HEVC
Продолжительность : 2 ч. 10 м.
Битрейт : 5644 Кбит/сек
Ширина : 1920 пикселей
Высота : 800 пикселей
Соотношение сторон : 2,40:1
Режим частоты кадров : Постоянный
Частота кадров : 23,976 (24000/1001) кадра/сек
Цветовое пространство : YUV
Субдискретизация насыщенности : 4:2:0
Битовая глубина : 10 бит
Бит/(Пиксели*Кадры) : 0.153
Размер потока : 5,15 Гбайт (81%)
Заголовок : Oz the Great and Powerful / Rip by OldGamer
Библиотека кодирования : x265 2.9+9-f74003e88622:[Mac OS X][clang 10.0.0][64 bit] 10bit
Настройки программы : cpuid=1111039 / frame-threads=14 / wpp / no-pmode / no-pme / no-psnr / no-ssim / log-level=3 / input-csp=1 / input-res=1920x800 / interlace=0 / total-frames=0 / level-idc=41 / high-tier=1 / uhd-bd=0 / ref=5 / allow-non-conformance / no-repeat-headers / annexb / no-aud / no-hrd / info / hash=0 / no-temporal-layers / open-gop / min-keyint=23 / keyint=240 / gop-lookahead=0 / bframes=11 / b-adapt=2 / b-pyramid / bframe-bias=0 / rc-lookahead=60 / lookahead-slices=5 / scenecut=40 / radl=0 / no-intra-refresh / ctu=64 / min-cu-size=8 / rect / amp / max-tu-size=32 / tu-inter-depth=4 / tu-intra-depth=4 / limit-tu=1 / rdoq-level=2 / dynamic-rd=0.00 / no-ssim-rd / signhide / no-tskip / nr-intra=0 / nr-inter=0 / no-constrained-intra / no-strong-intra-smoothing / max-merge=5 / limit-refs=2 / no-limit-modes / me=3 / subme=7 / merange=57 / temporal-mvp / weightp / weightb / no-analyze-src-pics / deblock=-3:-3 / no-sao / no-sao-non-deblock / rd=6 / no-early-skip / rskip / no-fast-intra / no-tskip-fast / no-cu-lossless / no-b-intra / no-splitrd-skip / rdpenalty=0 / psy-rd=2.00 / psy-rdoq=1.00 / no-rd-refine / no-lossless / cbqpoffs=0 / crqpoffs=0 / rc=crf / crf=19.0 / qcomp=0.60 / qpstep=4 / stats-write=0 / stats-read=0 / vbv-maxrate=50000 / vbv-bufsize=50000 / vbv-init=0.9 / crf-max=0.0 / crf-min=0.0 / ipratio=1.40 / pbratio=1.30 / aq-mode=3 / aq-strength=0.80 / no-cutree / zone-count=0 / no-strict-cbr / qg-size=32 / no-rc-grain / qpmax=69 / qpmin=0 / no-const-vbv / sar=1 / overscan=0 / videoformat=5 / range=0 / colorprim=2 / transfer=2 / colormatrix=2 / chromaloc=0 / display-window=0 / max-cll=0,0 / min-luma=0 / max-luma=1023 / log2-max-poc-lsb=8 / vui-timing-info / vui-hrd-info / slices=1 / no-opt-qp-pps / no-opt-ref-list-length-pps / no-multi-pass-opt-rps / scenecut-bias=0.00 / no-opt-cu-delta-qp / aq-motion / no-hdr / no-hdr-opt / no-dhdr10-opt / no-idr-recovery-sei / analysis-reuse-level=5 / scale-factor=0 / refine-intra=0 / refine-inter=0 / refine-mv=0 / no-limit-sao / ctu-info=0 / no-lowpass-dct / refine-mv-type=0 / copy-pic=1 / max-ausize-factor=1.0 / no-dynamic-refine / no-single-sei
Язык : English
Default : Да
Forced : Нет
Цветовой диапазон : Limited

Аудио #1
Идентификатор : 2
Формат : AC-3
Формат/Информация : Audio Coding 3
Коммерческое название : Dolby Digital
Идентификатор кодека : A_AC3
Продолжительность : 2 ч. 10 м.
Вид битрейта : Постоянный
Битрейт : 640 Кбит/сек
Каналы : 6 каналов
Channel layout : L R C LFE Ls Rs
Частота : 48,0 КГц
Частота кадров : 31,250 кадров/сек (1536 SPF)
Битовая глубина : 16 бит
Метод сжатия : С потерями
Размер потока : 597 Мбайт (9%)
Заголовок : Дубляж
Язык : Russian
ServiceKind : Complete Main
Default : Да
Forced : Нет

Аудио #2
Идентификатор : 3
Формат : AC-3
Формат/Информация : Audio Coding 3
Коммерческое название : Dolby Digital
Идентификатор кодека : A_AC3
Продолжительность : 2 ч. 10 м.
Вид битрейта : Постоянный
Битрейт : 640 Кбит/сек
Каналы : 6 каналов
Channel layout : L R C LFE Ls Rs
Частота : 48,0 КГц
Частота кадров : 31,250 кадров/сек (1536 SPF)
Битовая глубина : 16 бит
Метод сжатия : С потерями
Размер потока : 597 Мбайт (9%)
Заголовок : Оригинал
Язык : English
ServiceKind : Complete Main
Default : Нет
Forced : Нет

Текст #1
Идентификатор : 4
Формат : UTF-8
Идентификатор кодека : S_TEXT/UTF8
Идентификатор кодека/Информация : UTF-8 Plain Text
Продолжительность : 2 ч. 3 м.
Битрейт : 0 бит/сек
ElementCount : 7
Размер потока : 196 байт (0%)
Заголовок : Forced
Язык : Russian
Default : Нет
Forced : Нет

Текст #2
Идентификатор : 5
Формат : UTF-8
Идентификатор кодека : S_TEXT/UTF8
Идентификатор кодека/Информация : UTF-8 Plain Text
Продолжительность : 2 ч. 3 м.
Битрейт : 71 бит/сек
ElementCount : 1587
Размер потока : 65,1 Кбайт (0%)
Заголовок : Full
Язык : Russian
Default : Нет
Forced : Нет

Текст #3
Идентификатор : 6
Формат : UTF-8
Идентификатор кодека : S_TEXT/UTF8
Идентификатор кодека/Информация : UTF-8 Plain Text
Продолжительность : 2 ч. 7 м.
Битрейт : 49 бит/сек
ElementCount : 1708
Размер потока : 46,1 Кбайт (0%)
Заголовок : Full
Язык : English
Default : Нет
Forced : Нет

Меню
00:00:00.000 : :Chapter 01
00:02:37.699 : :Chapter 02
00:06:16.959 : :Chapter 03
00:09:57.555 : :Chapter 04
00:11:32.691 : :Chapter 05
00:15:20.753 : :Chapter 06
00:17:47.191 : :Chapter 07
00:20:29.478 : :Chapter 08
00:24:01.982 : :Chapter 09
00:24:49.779 : :Chapter 10
00:27:01.661 : :Chapter 11
00:29:37.358 : :Chapter 12
00:32:43.419 : :Chapter 13
00:34:30.193 : :Chapter 14
00:37:22.657 : :Chapter 15
00:38:57.376 : :Chapter 16
00:40:39.145 : :Chapter 17
00:42:09.944 : :Chapter 18
00:42:52.444 : :Chapter 19
00:45:33.480 : :Chapter 20
00:47:22.839 : :Chapter 21
00:48:32.409 : :Chapter 22
00:53:29.831 : :Chapter 23
00:55:22.652 : :Chapter 24
00:57:15.932 : :Chapter 25
00:59:10.838 : :Chapter 26
01:02:05.263 : :Chapter 27
01:05:33.220 : :Chapter 28
01:06:21.102 : :Chapter 29
01:09:55.774 : :Chapter 30
01:12:20.836 : :Chapter 31
01:15:37.783 : :Chapter 32
01:18:20.320 : :Chapter 33
01:19:47.782 : :Chapter 34
01:21:27.882 : :Chapter 35
01:26:16.170 : :Chapter 36
01:28:08.783 : :Chapter 37
01:30:33.219 : :Chapter 38
01:34:24.116 : :Chapter 39
01:36:57.436 : :Chapter 40
01:37:35.975 : :Chapter 41
01:41:30.876 : :Chapter 42
01:42:30.394 : :Chapter 43
01:45:51.762 : :Chapter 44
01:48:33.423 : :Chapter 45
01:51:23.802 : :Chapter 46
01:54:26.317 : :Chapter 47
01:55:54.072 : :Chapter 48
01:57:58.404 : :Chapter 49
01:59:34.417 : :Chapter 50
02:02:49.570 : :Chapter 51
02:04:32.756 : :Chapter 52
02:10:29.738 : :Chapter 53

pb.wtf



Скачать Оз: Великий и Ужасный через торрент http://i65.fastpic.ru/big/2014/0913/61/948a43e5902c049a672c81dd7d562861.png Скачать фильм Оз: Великий и Ужасный через торрент бесплантно в хорошем качестве Описание: Когда ураган забрасывает циркового фокусника Оскара Диггса из пыльного Канзаса в волшебную страну Оз, склонный к мошенничеству ... 10 10 3
Торрент: Зарегистрирован [2019-06-14 18:29] · скачан: 101 раз
Статус: √ проверено
Размер: 6.31 GB
Как cкачать? Как скачать Оз: Великий и Ужасный через торрент | qTorrent

% Раздел Тема Автор DL S | L
Фильмы (WEB-DL 720p, 1080p) [ 4.35 GB ] Оз: Великий и Ужасный / Oz the Great and Powerful [2013 WEBRip 1080p] [Open Matte] [Локализованный видеоряд] killermax2013 Скачать
1 | 0
Фильмы 2013 [DVDrip, WEB-DLRip, HDrip] [ 1.46 GB ] Оз: Великий и Ужасный / Oz the Great and Powerful [2013 WEBRip] [Локализованный видеоряд] killermax2013 Скачать
1 | 0
Фильмы [HD 720p, 1080p] (Хороший звук DUB, MVO) [ 9.59 GB ] Оз: Великий и Ужасный / Oz the Great and Powerful [2013 BDRip 1080p DUB ] от R.G. HD-Films Seedtank Скачать
1 | 0
Фильмы 2013 [DVDrip, WEB-DLRip, HDrip] [ 2.18 GB ] Оз: Великий и Ужасный / Oz the Great and Powerful [ 2013 BDRip ] DUB [ лицензия ] Ворон Скачать
1 | 0
Фильмы 2013 [DVDrip, WEB-DLRip, HDrip] [ 1.44 GB ] Оз: Великий и Ужасный / Oz the Great and Powerful [ 2013 HDRip ] DUB [ лицензия ] Ворон Скачать
1 | 0
T Фильмы 2013 [DVDrip, WEB-DLRip, HDrip] [ 1.46 GB ] Оз: Великий и Ужасный / Oz: The Great and Powerful [2013 BDRip-AVC] DUB Rzhavec Скачать
1 | 0
T Фильмы [HD 720p, 1080p] (Хороший звук DUB, MVO) [ 6.04 GB ] Оз: Великий и Ужасный / Oz the Great and Powerful [2013 BDRip 720p] DUB [ Russia] diletant Скачать
1 | 0

28-11-2019 20:33  

Отключить всю рекламу на сайте

15-06-2019 11:02 Оз: Великий и Ужасный Скачать торрент  

Я на него в кино , в 3Д ходил , при релизе . Так себе , жаль . А то бы пересмотрел в HD )). По скринам , картинка насыщенная.pb.wtf



    Дорогой пользователь! Огромная просьба, поблагодарите релизера, оцените раздачу и оставьте свои комментарий, если Вы скачали Оз: Великий и Ужасный через торрент бесплатно! Внесите свою лепту в развитие PiratBit!
    Комментировать посты могут только пользователи прошедшие не сложную регистрацию
    Показать сообщения:    

    Оз: Великий и Ужасный через торрент
    Скачать бесплатно Оз: Великий и Ужасный
    Оз: Великий и Ужасный скачать торрент
    Оз: Великий и Ужасный смотреть онлайн
    Cкачать фильм Оз: Великий и Ужасный бесплатно
    Оз: Великий и Ужасный скачать торрент в хорошем качестве
    Оз: Великий и Ужасный смотреть онлайн бесплатно в хорошем качестве


    Вы не можете начинать темы
    Вы не можете отвечать на сообщения
    Вы не можете редактировать свои сообщения
    Вы не можете удалять свои сообщения
    Вы не можете голосовать в опросах
    Вы не можете прикреплять файлы к сообщениям
    Вы можете скачивать файлы