новый адрес пиратбит piratbit
Мега распродажа FORZA HORIZON 4 ULTIMATE+ВСЕ DLC+ОНЛАЙН всего за 499р. 349 руб. (супер цена). Внимание количество ограничено!!!

iTunes

1+1

iTunes

мы

iTunes

1

iTunes

Чернобыль

iTunes

Ральф против интернета

Лицензия

ПШазам

Лицензия

Игра престолов

Лицензия

30
pack

ВАЖНО

!!Акция!!

Alien_RageХит недели

RePack

Resident Evil 21

ИГРА 18+

pack

RePack

Metro:Exodus

!!Акция!!

Alien_Rage

RePack

fifa19

RePack

Assassins Creed: Odyssey

RePack

NEED FOR SPEED™ PAYBACK

3 сезон

9 сезон

Бесстыжие 9 сезон

Все сериалы

все сериалы на PB.wtf

RePack

FAR CRY 5
Ребята, катастрофически не хватает 1900р. для оплаты серверов за Октябрь (всвязи с блокировками трафик упал в 3 раза), 1-2р., выручайте.
  

Спасатели Малибу / Baywatch / Сезон: 5 / Серии: 1-22 из 22 (Грегори Дж. Бонанн, Дуглас Шварц, Гас Триконис) [1994-1995, Боевик, Драма, WEB-DL 1080p] MVO [Sony Turbo] pb.wtf

Спасатели Малибу через торрент pb.wtf

Размер: 92.62 GB | Добавлен: 5 мес. 2 д. назад | Торрент скачан:0 раз
Скачать  

14-06-2019 19:55 Спасатели Малибу Скачать торрент  

Спасатели Малибу / Baywatch Год выпуска: 1994-1995
Страна: США
Жанр: Бевик, драма, мелодрама, криминал, приключения…
Продолжительность: ~00:42:00
Перевод: Профессиональный (многоголосый закадровый) | Sony Turbo
Субтитры: Английские (SDH)
Реклама: Отсутствует

Режиссёр: Грегори Дж. Бонанн, Дуглас Шварц, Гас Триконис, Рик Джейкобсон, Георг Фенади, Паркер Стивенсон, Льюис Стаут…



В ролях:

Дэвид Хэсселхофф, Джереми Джексон, Памела Андерсон, Майкл Ньюман, Паркер Стивенсон, Шон Уэзерли, Билли Уорлок, Эрика Элениак, Брэндон Кол, Питер Фелпс, Монти Маркхем, Вэнди Малик, Крис Фиоре, Грегори Алан Уильямс, Александра Пол, Майкл Бергин, Дэвид Чокачи, Ясмин Блит…

Описание:

Люди на отдыхе - красивые, веселые, расслабленные и... весьма легкомысленные. А спортивные, загорелые и очень сексуальные спасатели всегда наготове - они не позволят утонуть ни одному отдыхающему, даже если кому-то этого очень захочетcя! Каждый день эти молодые парни и девушки опровергают народную мудрость о том, что "спасение утопающих - дело рук самых утопающих". Эта команда спасателей очень необычна. В нее принимают только профессионалов, обладающих великолепными внешними данными: ведь работать приходится на одном из самых популярных пляжей мира. Но спасатели Малибу свое время отдают не только работе: они, как и все люди, влюбляются, переживают, страдают, и нередко попадают в затруднительные ситуации...

Качество: WEB-DL 1080p
Контейнер: MKV

Видео: 1920x1080, 23.976 fps, MPEG-4 AVC, ~14000 kbps
Аудио Rus: AC3, 48.0 kHz, 2ch, 192 kbps | Sony Turbo
Аудио Eng: E-AC3, 48.0 kHz, 2ch, 224 kbps
Видео с AMZN от NTb
Спасибо miha2154 за несколько звуковых дорожек.
01. Livin' on the Fault Line: Part 1
02. Livin' on the Fault Line: Part 2
03. Aftershock
04. Baja Run
05. Air Buchannon
06. Short Sighted
07. Someone to Baywatch Over You
08. K-Gas the Groove Yard of Solid Gold
09. Red Wind
10. I Spike
11. Silent Night, Baywatch Night: Part 1
12. Silent Night, Baywatch Night: Part 2
13. Rubber Ducky
14. Homecoming
15. Seize the Day
16. A Little Help
17. Father's Day
18. Fire with Fire
19. Deep Trouble
20. Promised Land
21. The Runaways
22. Wet 'n' Wild
Общее
Уникальный идентификатор : 234783657654513661083956494101302764074 (0xB0A1B00B55C4F47CBB8AC4A4EB74622A)
Полное имя : J:\Baywatch.S05.1080p.WEB-DL.H.264.Rus.Eng-@EniaHD\Baywatch.S05E13.Rubber.Ducky.1080p.WEB-DL.H.264.Rus.Eng-@EniaHD.mkv
Формат : Matroska
Версия формата : Version 4
Размер файла : 4,27 Гбайт
Продолжительность : 42 м. 47 с.
Общий поток : 14,3 Мбит/сек
Название фильма : Baywatch.S05E13.Rubber.Ducky.1080p.AMZN.WEB-DL.DDP2.0.H.264-NTb-ParovozN@EniaHD
Дата кодирования : UTC 2019-06-14 08:00:19
Программа кодирования : mkvmerge v32.0.0 ('Astral Progressions') 32-bit
Библиотека кодирования : libebml v1.3.7 + libmatroska v1.5.0

Видео
Идентификатор : 1
Формат : AVC
Формат/Информация : Advanced Video Codec
Профиль формата : High@L4
Настройки формата : CABAC / 4 Ref Frames
Параметр CABAC формата : Да
Параметр RefFrames формата : 4 кадра
Идентификатор кодека : V_MPEG4/ISO/AVC
Продолжительность : 42 м. 47 с.
Битрейт : 13,9 Мбит/сек
Ширина : 1920 пикселей
Высота : 1080 пикселей
Соотношение сторон : 16:9
Режим частоты кадров : Постоянный
Частота кадров : 23,976 (24000/1001) кадра/сек
Цветовое пространство : YUV
Субдискретизация насыщенности : 4:2:0
Битовая глубина : 8 бит
Тип развёртки : Прогрессивная
Бит/(Пиксели*Кадры) : 0.279
Размер потока : 4,15 Гбайт (97%)
Default : Да
Forced : Нет
Цветовой диапазон : Limited
Основные цвета : BT.709
Характеристики трансфера : BT.709
Коэффициенты матрицы : BT.709

Аудио #1
Идентификатор : 2
Формат : AC-3
Формат/Информация : Audio Coding 3
Коммерческое название : Dolby Digital
Идентификатор кодека : A_AC3
Продолжительность : 42 м. 47 с.
Вид битрейта : Постоянный
Битрейт : 192 Кбит/сек
Каналы : 2 канала
Channel layout : L R
Частота : 48,0 КГц
Частота кадров : 31,250 кадров/сек (1536 SPF)
Битовая глубина : 16 бит
Метод сжатия : С потерями
Размер потока : 58,8 Мбайт (1%)
Заголовок : MVO (Sony Turbo)
Язык : Russian
ServiceKind/String : Complete Main
Default : Да
Forced : Нет

Аудио #2
Идентификатор : 3
Формат : E-AC-3
Формат/Информация : Enhanced AC-3
Коммерческое название : Dolby Digital Plus
Идентификатор кодека : A_EAC3
Продолжительность : 42 м. 47 с.
Вид битрейта : Постоянный
Битрейт : 224 Кбит/сек
Каналы : 2 канала
Channel layout : L R
Частота : 48,0 КГц
Частота кадров : 31,250 кадров/сек (1536 SPF)
Метод сжатия : С потерями
Размер потока : 68,6 Мбайт (2%)
Язык : English
ServiceKind/String : Complete Main
Default : Нет
Forced : Нет

Текст
Идентификатор : 4
Формат : UTF-8
Идентификатор кодека : S_TEXT/UTF8
Идентификатор кодека/Информация : UTF-8 Plain Text
Продолжительность : 41 м. 33 с.
Битрейт : 67 бит/сек
ElementCount : 700
Размер потока : 20,5 Кбайт (0%)
Заголовок : SDH
Язык : English
Default : Нет
Forced : Нет
pb.wtf



Скачать Спасатели Малибу через торрент https://funkyimg.com/i/2UJoY.jpg Скачать фильм Спасатели Малибу через торрент бесплантно в хорошем качестве Описание: Люди на отдыхе - красивые, веселые, расслабленные и... весьма легкомысленные. А спортивные, загорелые и очень сексуальные ... 10 10 3
Info! Золотая раздача, скачанное не засчитывается.
Торрент: Зарегистрирован [2019-06-14 19:55] · скачан: 0 раз
Статус: √ проверено
Размер: 92.62 GB
Как cкачать? Как скачать Спасатели Малибу через торрент | qTorrent


>> Регистрируемся здесь <<






Отзывы и комментарии о схеме читаем и пишем здесь: ---> Отзывы и комментарии о схеме

Новые благодарочки в телеграм довольных пользователей:
скриншот   скриншот   скриншот   скриншот   скриншот
    Дорогой пользователь! Огромная просьба, поблагодарите релизера, оцените раздачу и оставьте свои комментарий, если Вы скачали Спасатели Малибу через торрент бесплатно! Внесите свою лепту в развитие PiratBit!
    Комментировать посты могут только пользователи прошедшие не сложную регистрацию
    Показать сообщения:    

    Спасатели Малибу через торрент
    Скачать бесплатно Спасатели Малибу
    Спасатели Малибу скачать торрент
    Спасатели Малибу смотреть онлайн
    Cкачать фильм Спасатели Малибу бесплатно
    Спасатели Малибу скачать торрент в хорошем качестве
    Спасатели Малибу смотреть онлайн бесплатно в хорошем качестве


    Вы не можете начинать темы
    Вы не можете отвечать на сообщения
    Вы не можете редактировать свои сообщения
    Вы не можете удалять свои сообщения
    Вы не можете голосовать в опросах
    Вы не можете прикреплять файлы к сообщениям
    Вы можете скачивать файлы