Ссылка на приватное зеркало нашего сайта всего за 1$. Внимание количество ограничено!!!

2 сезон

iTunes

1 сезон

1

2 сезон

2 сезон

iTunes

1 сезон

RePack

30

Ultimate

ВАЖНО

ИГРА 18+

pack

RePack

MK11
pack

Забери бонус

RePack

jed

!!Акция!!

Alien_Rage

RePack

fifa19

RePack

Assassins Creed: Odyssey

RePack

NEED FOR SPEED™ PAYBACK

4 сезон

9 сезон

Бесстыжие 9 сезон

Все сериалы

все сериалы на PB.wtf

RePack

FAR CRY 5
  

Загадочное убийство / Murder Mystery (Кайл Ньюачек) [2019, боевик, мелодрама, комедия, детектив, WEB-DL 1080p] DUB [Пифагор] pb.wtf

Загадочное убийство через торрент pb.wtf

Раздают: 2 [ 0 KB/s ]
Размер: 3.68 GB | Добавлен: 1 год 5 мес. назад | Торрент скачан:2715 раз
Скачать  

15-06-2019 04:06 Загадочное убийство Скачать торрент  

Загадочное убийство / Murder Mystery Год выпуска: 2019
Страна: США
Жанр: боевик, мелодрама, комедия, детектив
Продолжительность: 01:37:00
Перевод: Дублированный | Пифагор
Субтитры: Russian (Forced, Full), English

Режиссер: Кайл Ньюачек

rating


В ролях:

Дженнифер Энистон, Адам Сэндлер, Джемма Артертон, Люк Эванс, Джеки Сэндлер, Оулавюр Дарри Оулафссон, Джон Кани, Теренс Стэмп, Сиори Куцуна, Элен Кардона, Дэвид Уоллиамс, Адиль Ахтар, Суфе Брэдшоу, Пилар Холлэнд, Хелена Мари Патт, Роуз Мария Вильде

Описание:

Чтобы оживить семейные отношения полицейский из Нью-Йорка вместе со своей женой отправляются в путешествие по Европе. В самолете они знакомятся с богатым пожилым мужчиной, который приглашает их на свою роскошную яхту. Но там его убивают, а они становятся главными подозреваемыми...[/th]

Качество: WEB-DL 1080p
Формат: MKV

Видео: 1920x1080 at 24.000 fps, MPEG-4 AVC, ~4220 kbps avg
Аудио#1: Russian: 48 kHz, Е-AC3, 3/2 (L,C,R,l,r) + LFE ch, ~640 kbps avg |Дубляж, Пифагор|
Аудио#2: English: 48 kHz, E-AC3, 3/2 (L,C,R,l,r) + LFE ch, ~640 kbps avg
скриншот  скриншот  скриншот  

скриншот  скриншот  скриншот  

General
Unique ID : 205444797063404067167046531118868274294 (0x9A8F3A8959A3099AB5A0E73A3D411C76)
Complete name : Murder.Mystery.2019.1080p.NF.WEB-DL.DDP5.1.x264-EniaHD.mkv
Format : Matroska
Format version : Version 4 / Version 2
File size : 3.68 GiB
Duration : 1 h 37 min
Overall bit rate mode : Variable
Overall bit rate : 5 386 kb/s
Movie name : Murder Mystery (2019) - EniaHD
Encoded date : UTC 2019-06-15 02:42:22
Writing application : mkvmerge v34.0.0 ('Sight and Seen') 64-bit
Writing library : libebml v1.3.7 + libmatroska v1.5.0

Video
ID : 1
Format : AVC
Format/Info : Advanced Video Codec
Format profile : Main@L4
Format settings : CABAC / 3 Ref Frames
Format settings, CABAC : Yes
Format settings, ReFrames : 3 frames
Codec ID : V_MPEG4/ISO/AVC
Duration : 1 h 37 min
Bit rate mode : Variable
Bit rate : 4 220 kb/s
Maximum bit rate : 6 330 kb/s
Width : 1 920 pixels
Height : 1 080 pixels
Display aspect ratio : 16:9
Frame rate mode : Constant
Frame rate : 24.000 FPS
Color space : YUV
Chroma subsampling : 4:2:0
Bit depth : 8 bits
Scan type : Progressive
Bits/(Pixel*Frame) : 0.085
Stream size : 2.80 GiB (76%)
Writing library : x264 core 148 r2715 7e75228
Encoding settings : cabac=1 / ref=3 / deblock=1:0:0 / analyse=0x1:0x111 / me=umh / subme=10 / psy=1 / psy_rd=1.00:0.00 / mixed_ref=1 / me_range=24 / chroma_me=1 / trellis=2 / 8x8dct=0 / cqm=0 / deadzone=21,11 / fast_pskip=1 / chroma_qp_offset=-2 / threads=8 / lookahead_threads=1 / sliced_threads=0 / nr=0 / decimate=1 / interlaced=0 / bluray_compat=0 / stitchable=1 / constrained_intra=0 / bframes=2 / b_pyramid=0 / b_adapt=2 / b_bias=0 / direct=3 / weightb=1 / open_gop=0 / weightp=2 / keyint=250 / keyint_min=24 / scenecut=0 / intra_refresh=0 / rc_lookahead=48 / rc=2pass / mbtree=1 / bitrate=4220 / ratetol=1.0 / qcomp=0.50 / qpmin=6 / qpmax=51 / qpstep=4 / cplxblur=20.0 / qblur=0.5 / vbv_maxrate=6330 / vbv_bufsize=8440 / nal_hrd=vbr / filler=0 / ip_ratio=1.40 / aq=1:1.00
Default : Yes
Forced : No

Audio #1
ID : 2
Format : E-AC-3
Format/Info : Enhanced Audio Coding 3
Codec ID : A_EAC3
Duration : 1 h 37 min
Bit rate mode : Constant
Bit rate : 640 kb/s
Channel(s) : 6 channels
Channel positions : Front: L C R, Side: L R, LFE
Sampling rate : 48.0 kHz
Frame rate : 187.500 FPS (256 SPF)
Compression mode : Lossy
Stream size : 448 MiB (12%)
Title : Dub
Language : Russian
Service kind : Complete Main
Default : Yes
Forced : No

Audio #2
ID : 3
Format : E-AC-3
Format/Info : Enhanced Audio Coding 3
Codec ID : A_EAC3
Duration : 1 h 37 min
Bit rate mode : Constant
Bit rate : 640 kb/s
Channel(s) : 6 channels
Channel positions : Front: L C R, Side: L R, LFE
Sampling rate : 48.0 kHz
Frame rate : 187.500 FPS (256 SPF)
Compression mode : Lossy
Stream size : 448 MiB (12%)
Title : Original
Language : English
Service kind : Complete Main
Default : No
Forced : No

Text #1
ID : 4
Format : UTF-8
Codec ID : S_TEXT/UTF8
Codec ID/Info : UTF-8 Plain Text
Duration : 1 h 36 min
Bit rate : 0 b/s
Count of elements : 15
Stream size : 567 Bytes (0%)
Title : Forced
Language : Russian
Default : Yes
Forced : Yes

Text #2
ID : 5
Format : UTF-8
Codec ID : S_TEXT/UTF8
Codec ID/Info : UTF-8 Plain Text
Duration : 1 h 36 min
Bit rate : 118 b/s
Count of elements : 1674
Stream size : 83.9 KiB (0%)
Title : Full
Language : Russian
Default : No
Forced : No

Text #3
ID : 6
Format : UTF-8
Codec ID : S_TEXT/UTF8
Codec ID/Info : UTF-8 Plain Text
Duration : 1 h 28 min
Bit rate : 106 b/s
Count of elements : 2035
Stream size : 69.2 KiB (0%)
Title : SDH
Language : English
Default : No
Forced : No

pb.wtf



Скачать Загадочное убийство через торрент https://i3.imageban.ru/out/2019/06/15/050c161a4f015e4f2940181eaf4b2fdf.jpg Скачать фильм Загадочное убийство через торрент бесплантно в хорошем качестве Описание: Чтобы оживить семейные отношения полицейский из Нью-Йорка вместе со своей женой отправляются в путешествие по Европе. В самолете ... 10 10 47
Info! Золотая раздача, скачанное не засчитывается.
Торрент: Зарегистрирован [2019-06-15 04:06] · скачан: 2 715 раз
Статус: √ проверено
Размер: 3.68 GB
Как cкачать? Как скачать Загадочное убийство через торрент | qTorrent

% Раздел Тема Автор DL S | L
Фильмы 2019-2020 [DVDrip, WEB-DLRip, HDrip] (DUB, MVO) [ 2.16 GB ] Загадочное убийство / Murder Mystery [2019 WEB-DLRip-AVC] [DVO] killermax2013 Скачать
2 | 0
Фильмы 2019-2020 [DVDrip, WEB-DLRip, HDrip] (DUB, MVO) [ 1.46 GB ] Загадочное убийство / Murder Mystery [2019 WEB-DLRip-AVC] Dub [Пифагор] sokol_ok Скачать
108 | 0
Фильмы (WEB-DL 720p, 1080p) [ 2.34 GB ] Загадочное убийство / Murder Mystery [2019 WEB-DL 720p] DUB [Пифагор] bober100 Скачать
2 | 0
Ultra HD (UHD: 2K, 4K, 8K) — видео сверхвысокой чёткости [ 14.57 GB ] Загадочное убийство / Murder Mystery [2019 UHD WEB-DL 2160p] [Пифагор] sheker187 Скачать
1 | 0
Фильмы 2019-2020 [DVDrip, WEB-DLRip, HDrip] (DUB, MVO) [ 1.46 GB ] Загадочное убийство / Murder Mystery [2019 WEB-DLRip-AVC] DUB [Пифагор] bober100 Скачать
1 | 0
Фильмы 2019-2020 [DVDrip, WEB-DLRip, HDrip] (DUB, MVO) [ 1.46 GB ] Загадочное убийство / Murder Mystery [2019 WEB-DLRip] DUB [Пифагор] bober100 Скачать
2 | 0
National Geographic [ 7.73 GB ] Viasat History: Загадочные убийства: царственные особы / Royal Murder Mysteries / Серии: 1-6 из 6 [2017 документальный HDTV 1080i] VO bober100 Скачать
1 | 0


Последний раз редактировалось: bober100 (2019-06-16 01:09), всего редактировалось 3 раз(а)

28-11-2019 20:33  

Отключить всю рекламу на сайте

15-06-2019 05:13 Загадочное убийство Скачать торрент  

Мне одному кажется, что на первом скрине у Сэндлера очки комп. графикой сделаны?)))pb.wtf



16-06-2019 00:45 Загадочное убийство Скачать торрент  

pb.wtf



16-06-2019 18:31 Загадочное убийство Скачать торрент  

Хорошая комедия pb.wtf



28-06-2019 05:32 Загадочное убийство Скачать торрент  

Зачетный фильм! Поржали от души!pb.wtf



02-07-2019 15:04 Загадочное убийство Скачать торрент  

веселый фильмец,нормульpb.wtf



02-07-2019 20:31 Загадочное убийство Скачать торрент  

Америкозское говно говняцкоеpb.wtf



    Дорогой пользователь! Огромная просьба, поблагодарите релизера, оцените раздачу и оставьте свои комментарий, если Вы скачали Загадочное убийство через торрент бесплатно! Внесите свою лепту в развитие PiratBit!
    Комментировать посты могут только пользователи прошедшие не сложную регистрацию
    Показать сообщения:    

    Загадочное убийство через торрент
    Скачать бесплатно Загадочное убийство
    Загадочное убийство скачать торрент
    Загадочное убийство смотреть онлайн
    Cкачать фильм Загадочное убийство бесплатно
    Загадочное убийство скачать торрент в хорошем качестве
    Загадочное убийство смотреть онлайн бесплатно в хорошем качестве


    Вы не можете начинать темы
    Вы не можете отвечать на сообщения
    Вы не можете редактировать свои сообщения
    Вы не можете удалять свои сообщения
    Вы не можете голосовать в опросах
    Вы не можете прикреплять файлы к сообщениям
    Вы можете скачивать файлы