Ссылка на приватное зеркало нашего сайта всего за 1$. Внимание количество ограничено!!!

2 сезон

iTunes

1 сезон

1

2 сезон

2 сезон

iTunes

1 сезон

RePack

30

Ultimate

ВАЖНО

ИГРА 18+

pack

RePack

MK11
pack

Забери бонус

RePack

jed

!!Акция!!

Alien_Rage

RePack

fifa19

RePack

Assassins Creed: Odyssey

RePack

NEED FOR SPEED™ PAYBACK

4 сезон

9 сезон

Бесстыжие 9 сезон

Все сериалы

все сериалы на PB.wtf

RePack

FAR CRY 5
  

Счастливого нового дня смерти / Happy Death Day 2U (Кристофер Лэндон) [2019, ужасы, триллер, детектив, UHD WEBRip 2160p] Дубляж [Лицензия] pb.wtf

Счастливого нового дня смерти через торрент pb.wtf

Раздают: 1 [ 0 KB/s ]
Размер: 16.11 GB | Добавлен: 1 год 5 мес. назад | Торрент скачан:68 раз
Скачать  

15-06-2019 18:02 Счастливого нового дня смерти Скачать торрент  

Счастливого нового дня смерти / Happy Death Day 2U««Отпразднуем ещё разок?»»

Год выпуска: 2019
Страна: США,
Жанр: ужасы, триллер, детектив
Продолжительность: 01:39:56
Перевод: Дублированный [Лицензия]
Субтитры: Русские (полные), английские
Режиссер: Кристофер Лэндон
В ролях:

Джессика Рот (Tree Gelbman), Израэль Бруссар (Carter Davis), Фи Ву (Ryan Phan), Сурадж Шарма (Samar Ghosh), Сара Яркин (Andrea «Dre» Morgan), Рэйчел Мэттьюз (Danielle Bouseman), Руби Модин (Lori Spengler), Стив Зиссис (Dean Roger Bronson), Чарльз Эйткин (Gregory Butler), Лаура Клифтон (Stephanie Butler), Мисси Ягер (Julie Gelbman), Джейсон Бэйл (David Gelbman)
Описание:
Трис справилась с маньяком, пытавшимся убить её в её же день рождения, и вырвалась из петли времени. Но это не конец, ведь теперь он охотится за её друзьями. А значит, чтобы победить, Трис снова придется встретиться с ним лицом к лицу и не просто в том же самом дне, но ещё и в параллельной реальности - а всё из-за маленького научного проекта её друга Райана!
Рейтинг:

MPAA: PG-13 - Детям до 13 лет просмотр не желателен
Качество: UHD WEBRip 2160p
Формат: MKV
Видео: HEVC HDR, 21.2 Мбит/с, 3840x1608
Аудио №1: русский / AC3 / 5.1 / 48 kHz / 768 kbps /
Аудио №2: русский / AC3 / 5.1 / 48 kHz / 448 kbps /
Аудио №3: английский / AC3 / 5.1 / 48 kHz / 640 kbps /
Навигация по главам: есть

Общее
Уникальный идентификатор : 217934213850721025539132609199428685615 (0xA3F49A537875F2341A38A66170114F2F)
Полное имя : C:\Users\STOTIK\Downloads\Happy.Death.Day.2U.2019.WEBRip.2160p.HDR.mkv
Формат : Matroska
Версия формата : Version 4
Размер файла : 16,1 Гбайт
Продолжительность : 1 ч. 39 м.
Общий поток : 23,1 Мбит/сек
Дата кодирования : UTC 2019-06-15 16:48:30
Программа кодирования : mkvmerge v33.1.0 ('Primrose') 64-bit
Библиотека кодирования : libebml v1.3.7 + libmatroska v1.5.0

Видео
Идентификатор : 1
Формат : HEVC
Формат/Информация : High Efficiency Video Coding
Профиль формата : Main 10@L5.1@High
HDR_Format/String : SMPTE ST 2086, HDR10 compatible
Идентификатор кодека : V_MPEGH/ISO/HEVC
Продолжительность : 1 ч. 39 м.
Битрейт : 21,2 Мбит/сек
Ширина : 3840 пикселей
Высота : 1608 пикселей
Соотношение сторон : 2,40:1
Режим частоты кадров : Постоянный
Частота кадров : 23,976 (24000/1001) кадра/сек
Цветовое пространство : YUV
Субдискретизация насыщенности : 4:2:0 (Type 2)
Битовая глубина : 10 бит
Бит/(Пиксели*Кадры) : 0.143
Размер потока : 14,8 Гбайт (92%)
Библиотека кодирования : x265 3.0_Au+22-feec4bdf9866:[Windows][GCC 9.1.1][64 bit] 10bit
Настройки программы : rc=crf / crf=15.0000 / qcomp=0.60 / qpstep=4 / stats-write=0 / stats-read=0 / vbv-maxrate=160000 / vbv-bufsize=160000 / vbv-init=0.9 / crf-max=0.0 / crf-min=0.0 / qpmax=69 / qpmin=0 / no-lossless / no-cu-lossless / no-hevc-aq / no-aq-motion / aq-mode=1 / aq-strength=1.00 / cbqpoffs=0 / crqpoffs=0 / ipratio=1.40 / pbratio=1.30 / psy-rd=2.00 / psy-rdoq=1.00 / deblock=-3:-3 / ref=4 / limit-refs=3 / limit-modes / bframes=4 / b-adapt=2 / bframe-bias=0 / b-pyramid / no-b-intra / weightp / no-weightb / keyint=240 / min-keyint=24 / rc-lookahead=30 / gop-lookahead=0 / scenecut=40 / scenecut-bias=0.05 / ctu=64 / min-cu-size=8 / me=3 / subme=3 / merange=57 / rd=4 / no-rd-refine / no-ssim-rd / dynamic-rd=0.00 / rdoq-level=2 / rdpenalty=0 / cutree / no-sao / no-limit-sao / no-sao-non-deblock / rect / no-amp / no-open-gop / max-tu-size=32 / tu-inter-depth=1 / tu-intra-depth=1 / limit-tu=0 / qg-size=32 / wpp / no-pmode / no-pme / no-psnr / no-ssim / no-tskip / constrained-intra / no-strong-intra-smoothing / max-merge=3 / nr-intra=0 / nr-inter=0 / input-csp=1 / input-res=3840x1608 / interlace=0 / total-frames=140 / level-idc=51 / high-tier=1cpuid=1111039 / frame-threads=4 / numa-pools=28 / log-level=2 / uhd-bd=0 / lookahead-slices=4 / radl=0 / no-splice / no-intra-refresh / signhide / temporal-mvp / no-analyze-src-pics / no-early-skip / rskip / no-fast-intra / no-tskip-fast / no-splitrd-skip / zone-count=0 / no-strict-cbr / no-rc-grain / no-const-vbv / no-allow-non-conformance / repeat-headers / annexb / aud / hrd / info / hash=0 / no-temporal-layers / sar=0 / overscan=0 / videoformat=5 / range=0 / colorprim=9 / transfer=16 / colormatrix=9 / chromaloc=1 / chromaloc-top=2 / chromaloc-bottom=2 / display-window=0 / master-display=G(8500,39850)B(6550,2300)R(35400,14600)WP(15635,16450)L(10000000,50) / max-cll=962,491 / min-luma=0 / max-luma=1023 / log2-max-poc-lsb=8 / vui-timing-info / vui-hrd-info / slices=1 / no-opt-qp-pps / no-opt-ref-list-length-pps / no-multi-pass-opt-rps / no-opt-cu-delta-qp / hdr / hdr-opt / no-dhdr10-opt / no-idr-recovery-sei / analysis-reuse-level=5 / scale-factor=0 / refine-intra=0 / refine-inter=0 / refine-mv=0 / refine-ctu-distortion=0 / ctu-info=0 / no-lowpass-dct / refine-analysis-type=0 / copy-pic=1 / max-ausize-factor=1.0 / no-dynamic-refine / no-single-sei / no-svt / qp-adaptation-range=1.00
Язык : English
Default : Да
Forced : Нет
Цветовой диапазон : Limited
Основные цвета : BT.2020
Характеристики трансфера : PQ
Коэффициенты матрицы : BT.2020 non-constant
MasteringDisplay_ColorPrimaries : BT.2020
MasteringDisplay_Luminance : min: 0.0050 cd/m2, max: 1000 cd/m2
MaxCLL : 962 cd/m2
MaxFALL : 491 cd/m2

Аудио #1
Идентификатор : 2
Формат : DTS
Формат/Информация : Digital Theater Systems
Идентификатор кодека : A_DTS
Продолжительность : 1 ч. 39 м.
Вид битрейта : Постоянный
Битрейт : 768 Кбит/сек
Каналы : 6 каналов
ChannelLayout : C L R Ls Rs LFE
Частота : 48,0 КГц
Частота кадров : 93,750 кадра/сек (512 SPF)
Битовая глубина : 24 бит
Метод сжатия : С потерями
Размер потока : 549 Мбайт (3%)
Заголовок : Dub [License]
Язык : Russian
Default : Да
Forced : Да

Аудио #2
Идентификатор : 3
Формат : AC-3
Формат/Информация : Audio Coding 3
Коммерческое название : Dolby Digital
Идентификатор кодека : A_AC3
Продолжительность : 1 ч. 39 м.
Вид битрейта : Постоянный
Битрейт : 448 Кбит/сек
Каналы : 6 каналов
ChannelLayout : L R C LFE Ls Rs
Частота : 48,0 КГц
Частота кадров : 31,250 кадров/сек (1536 SPF)
Битовая глубина : 16 бит
Метод сжатия : С потерями
Размер потока : 320 Мбайт (2%)
Заголовок : Dub [License]
Язык : Russian
ServiceKind/String : Complete Main
Default : Нет
Forced : Нет

Аудио #3
Идентификатор : 4
Формат : AC-3
Формат/Информация : Audio Coding 3
Коммерческое название : Dolby Digital
Идентификатор кодека : A_AC3
Продолжительность : 1 ч. 39 м.
Вид битрейта : Постоянный
Битрейт : 640 Кбит/сек
Каналы : 6 каналов
ChannelLayout : L R C LFE Ls Rs
Частота : 48,0 КГц
Частота кадров : 31,250 кадров/сек (1536 SPF)
Битовая глубина : 16 бит
Метод сжатия : С потерями
Размер потока : 457 Мбайт (3%)
Заголовок : Original
Язык : English
ServiceKind/String : Complete Main
Default : Нет
Forced : Нет

Текст #1
Идентификатор : 5
Формат : UTF-8
Идентификатор кодека : S_TEXT/UTF8
Идентификатор кодека/Информация : UTF-8 Plain Text
Продолжительность : 1 ч. 33 м.
Битрейт : 96 бит/сек
ElementCount : 1567
Размер потока : 66,3 Кбайт (0%)
Заголовок : full
Язык : Russian
Default : Нет
Forced : Нет

Текст #2
Идентификатор : 6
Формат : UTF-8
Идентификатор кодека : S_TEXT/UTF8
Идентификатор кодека/Информация : UTF-8 Plain Text
Продолжительность : 1 ч. 33 м.
Битрейт : 64 бит/сек
ElementCount : 1604
Размер потока : 43,9 Кбайт (0%)
Заголовок : full
Язык : English
Default : Нет
Forced : Нет

Текст #3
Идентификатор : 7
Формат : UTF-8
Идентификатор кодека : S_TEXT/UTF8
Идентификатор кодека/Информация : UTF-8 Plain Text
Продолжительность : 1 ч. 39 м.
Битрейт : 67 бит/сек
ElementCount : 1868
Размер потока : 49,5 Кбайт (0%)
Заголовок : SDH
Язык : English
Default : Нет
Forced : Нет

Меню
00:00:00.000 : en:00:00:00.000
00:07:42.253 : en:00:07:42.253
00:16:01.085 : en:00:16:01.085
00:21:16.066 : en:00:21:16.066
00:24:21.460 : en:00:24:21.460
00:28:44.890 : en:00:28:44.890
00:32:34.661 : en:00:32:34.661
00:37:15.817 : en:00:37:15.817
00:42:02.812 : en:00:42:02.812
00:45:35.107 : en:00:45:35.107
00:48:37.665 : en:00:48:37.665
00:54:27.347 : en:00:54:27.347
01:00:36.341 : en:01:00:36.341
01:06:24.314 : en:01:06:24.314
01:13:19.520 : en:01:13:19.520
01:17:47.079 : en:01:17:47.079
01:21:31.762 : en:01:21:31.762
01:27:36.084 : en:01:27:36.084
01:33:02.994 : en:01:33:02.994
01:35:05.700 : en:01:35:05.700
pb.wtf



Скачать Счастливого нового дня смерти через торрент https://a.radikal.ru/a16/1906/da/ca3acc4c6e58.png Скачать фильм Счастливого нового дня смерти через торрент бесплантно в хорошем качестве Описание: Трис справилась с маньяком, пытавшимся убить её в её же день рождения, и вырвалась из петли времени. Но это не конец, ведь теперь ... 8 10 4
Торрент: Зарегистрирован [2019-06-15 18:02] · скачан: 68 раз
Статус: √ проверено
Размер: 16.11 GB
Как cкачать? Как скачать Счастливого нового дня смерти через торрент | qTorrent

% Раздел Тема Автор DL S | L
Фильмы (HD 720p, 1080p) (48-60 fps) [ 11.91 GB ] Счастливого нового дня смерти / Happy Death Day 2U [2019 BDRip 1080p 60 fps] DUB sheker187 Скачать
1 | 0
Фильмы [HD 720p, 1080p] (Хороший звук DUB, MVO) [ 13.07 GB ] Счастливого нового дня смерти / Happy Death Day 2U [2019 BDRip 1080p] DUB [] bober100 Скачать
2 | 0
Фильмы 2019-2020 [DVDrip, WEB-DLRip, HDrip] (DUB, MVO) [ 1.46 GB ] Счастливого нового дня смерти / Happy Death Day 2U [2019 BDRip] DUB [ Blu-Ray EUR] bober100 Скачать
1 | 0
Фильмы (Blu-ray, BD-Remux, HDDVD) [ 21.74 GB ] Счастливого нового дня смерти / Happy Death Day 2U [2019 BD Remux 1080p] DUB [] bober100 Скачать
1 | 0
Фильмы [HD 720p, 1080p] (Хороший звук DUB, MVO) [ 6.26 GB ] Счастливого нового дня смерти / Happy Death Day 2U [2019 BDRip 720p] DUB [] bober100 Скачать
2 | 0
Фильмы (Blu-ray, BD-Remux, HDDVD) [ 30.75 GB ] Счастливого нового дня смерти / Happy Death Day 2U [2019 Blu-ray EUR 1080p] DUB [] bober100 Скачать
1 | 0
Фильмы (WEB-DL 720p, 1080p) [ 3.35 GB ] Счастливого нового дня смерти / Happy Death Day 2U [2019 WEB-DL 720p] bober100 Скачать
1 | 0

28-11-2019 20:33  

Отключить всю рекламу на сайте

    Дорогой пользователь! Огромная просьба, поблагодарите релизера, оцените раздачу и оставьте свои комментарий, если Вы скачали Счастливого нового дня смерти через торрент бесплатно! Внесите свою лепту в развитие PiratBit!
    Комментировать посты могут только пользователи прошедшие не сложную регистрацию
    Показать сообщения:    

    Счастливого нового дня смерти через торрент
    Скачать бесплатно Счастливого нового дня смерти
    Счастливого нового дня смерти скачать торрент
    Счастливого нового дня смерти смотреть онлайн
    Cкачать фильм Счастливого нового дня смерти бесплатно
    Счастливого нового дня смерти скачать торрент в хорошем качестве
    Счастливого нового дня смерти смотреть онлайн бесплатно в хорошем качестве


    Вы не можете начинать темы
    Вы не можете отвечать на сообщения
    Вы не можете редактировать свои сообщения
    Вы не можете удалять свои сообщения
    Вы не можете голосовать в опросах
    Вы не можете прикреплять файлы к сообщениям
    Вы можете скачивать файлы