Ссылка на приватное зеркало нашего сайта всего за 1$. Внимание количество ограничено!!!

2 сезон

iTunes

1 сезон

1

iTunes

iTunes

iTunes

1 сезон

RePack

30

ИГРА 18+

pack

ВАЖНО

!!Акция!!

Alien_RageХит недели

RePack

MK11
pack

Забери бонус

RePack

jed

!!Акция!!

Alien_Rage

RePack

fifa19

RePack

Assassins Creed: Odyssey

RePack

NEED FOR SPEED™ PAYBACK

4 сезон

9 сезон

Бесстыжие 9 сезон

Все сериалы

все сериалы на PB.wtf

RePack

FAR CRY 5
  

Роман с прошлым / Серии: 1-4 из 4 (Мария Кравченко) [2019, Мелодрама, SATRip] pb.wtf

Роман с прошлым через торрент pb.wtf

Размер: 2.33 GB | Добавлен: 1 год 4 мес. назад | Торрент скачан:63 раза
Скачать  

15-06-2019 20:23 Роман с прошлым Скачать торрент  

Роман с прошлым Год выпуска: 2019
Страна: Россия
Жанр: Мелодрама
Продолжительность: ~ 00:45:00 серия
Субтитры: отсутствуют

Режиссер: Мария Кравченко



В ролях:

Татьяна Казючиц, Роман Полянский, Владимир Фекленко, Евгений Никитин, Зоя Антонова, Ирина Нарбекова, Юлианна Михневич, Валерий Воротынский, Павел Коренчук

Описание:

Лиза - дочь прокурора района и начинающий адвокат. Она вполне счастлива замужем за другом семьи Сергеем. Лиза растит сына, но мечтает открыть свою практику. Неожиданно в ее жизнь возвращается Олег - ее первая любовь. Когда-то властный отец Лизы, желая дочери счастья, разрушил их отношения с Олегом, но Лиза этого так и не узнала. Теперь же Олег ведет журналистское расследование в отношении мужа Лизы. Внезапно открывшиеся тайны меняют все, ведь оказывается, что и чувства Лизы и Олега никуда не исчезли.

Качество: SATRip
Формат: AVI

Видео: XviD, 720x400, ~ 1700 Кбит/с, 0.236 bit/pixel
Аудио: МР3, 2 ch, 192 Кбит/с
скриншот  скриншот  скриншот  скриншот  

Общее
Полное имя : D:\Роман.С.Прошлым.XviD.2019.SATRip.7turza\01.Роман.С.Прошлым.7turza.avi
Формат : AVI
Формат/Информация : Audio Video Interleave
Размер файла : 649 Мбайт
Продолжительность : 47 м. 39 с.
Общий поток : 1903 Кбит/сек
Программа кодирования : Lavf58.20.100
Библиотека кодирования : VirtualDub build 35576/release

Видео
Идентификатор : 0
Формат : MPEG-4 Visual
Профиль формата : Advanced Simple@L5
Настройки формата : BVOP1
Параметр BVOP формата : 1
Параметр QPel формата : Нет
Параметр GMC формата : Без точки перехода
Параметр матрицы формата : Default (H.263)
Идентификатор кодека : XVID
Идентификатор кодека/Подсказка : XviD
Продолжительность : 47 м. 39 с.
Битрейт : 1698 Кбит/сек
Ширина : 720 пикселей
Высота : 400 пикселей
Соотношение сторон : 16:9
Частота кадров : 25,000 кадров/сек
Цветовое пространство : YUV
Субдискретизация насыщенности : 4:2:0
Битовая глубина : 8 бит
Тип развёртки : Прогрессивная
Бит/(Пиксели*Кадры) : 0.236
Размер потока : 579 Мбайт (89%)
Библиотека кодирования : XviD 67

Аудио
Идентификатор : 1
Формат : MPEG Audio
Версия формата : Version 1
Профиль формата : Layer 3
Настройки формата : Joint stereo / MS Stereo
Идентификатор кодека : 55
Идентификатор кодека/Подсказка : MP3
Продолжительность : 47 м. 39 с.
Вид битрейта : Постоянный
Битрейт : 192 Кбит/сек
Каналы : 2 канала
Частота : 48,0 КГц
Размер потока : 65,5 Мбайт (10%)
Выравнивание : Соединение по промежуткам
Продолжительность промежутка : 24 мс. (0,60 видеокадр)
Время предзагрузки промежутка : 504 мс.
Библиотека кодирования : LAME3.100

pb.wtf



Скачать Роман с прошлым через торрент https://b.radikal.ru/b10/1906/83/c67032984c49.jpg Скачать фильм Роман с прошлым через торрент бесплантно в хорошем качестве Описание: Лиза - дочь прокурора района и начинающий адвокат. Она вполне счастлива замужем за другом семьи Сергеем. Лиза растит сына, но ... 10 10 4
Торрент: Зарегистрирован [2019-06-15 20:23] · скачан: 63 раз
Статус: √ проверено
Размер: 2.33 GB
Как cкачать? Как скачать Роман с прошлым через торрент | qTorrent

28-11-2019 20:33  

Отключить всю рекламу на сайте

    Дорогой пользователь! Огромная просьба, поблагодарите релизера, оцените раздачу и оставьте свои комментарий, если Вы скачали Роман с прошлым через торрент бесплатно! Внесите свою лепту в развитие PiratBit!
    Комментировать посты могут только пользователи прошедшие не сложную регистрацию
    Показать сообщения:    

    Роман с прошлым через торрент
    Скачать бесплатно Роман с прошлым
    Роман с прошлым скачать торрент
    Роман с прошлым смотреть онлайн
    Cкачать фильм Роман с прошлым бесплатно
    Роман с прошлым скачать торрент в хорошем качестве
    Роман с прошлым смотреть онлайн бесплатно в хорошем качестве


    Вы не можете начинать темы
    Вы не можете отвечать на сообщения
    Вы не можете редактировать свои сообщения
    Вы не можете удалять свои сообщения
    Вы не можете голосовать в опросах
    Вы не можете прикреплять файлы к сообщениям
    Вы можете скачивать файлы