Ссылка на приватное зеркало нашего сайта всего за 1$. Внимание количество ограничено!!!

2 сезон

iTunes

1 сезон

1

2 сезон

2 сезон

iTunes

1 сезон

RePack

30

Ultimate

ВАЖНО

ИГРА 18+

pack

RePack

MK11
pack

Забери бонус

RePack

jed

!!Акция!!

Alien_Rage

RePack

fifa19

RePack

Assassins Creed: Odyssey

RePack

NEED FOR SPEED™ PAYBACK

4 сезон

9 сезон

Бесстыжие 9 сезон

Все сериалы

все сериалы на PB.wtf

RePack

FAR CRY 5
  

Операция «Колибри» / The Hummingbird Project (Ким Нгуйен) [2018, Триллер, WEB-DL 1080p] MVO [СВ Студия] pb.wtf

Операция «Колибри» через торрент pb.wtf

Размер: 4.13 GB | Добавлен: 1 год 5 мес. назад | Торрент скачан:279 раз
Скачать  

16-06-2019 01:27 Операция «Колибри» Скачать торрент  

Операция «Колибри» / The Hummingbird Project
Год выпуска: 2018
Страна: Бельгия, Канада
Жанр: Триллер
Продолжительность: 01:50:00
Перевод: Профессиональный (многоголосый) | СВ Студия по заказу Кинопаб (Присутствует мат)
Субтитры: отсутствуют

Режиссер: Ким Нгуйен

rating


В ролях:

Джесси Айзенберг, Александр Скарсгард, Сальма Хайек, Майкл Мэндо, Йохан Хелденберг, Аиша Исса, Марк Слэк, Сара Голдберг, Фрэнк Скорпион, Кваси Сонгуи

Описание:

Двоюродные братья Винсент и Антон живут в мире высокочастотного трейдинга, где каждая миллисекунда может стоить миллиарды. Они решаются реализовать давно задуманный проект. Казалось бы, все продумано до мелочей и шансы на успех велики как никогда. Однако на пути братьев встает их бывший босс Эва Торрес - беспринципный злой гений, ставшая их заклятым врагом. Ставки высоки, проигравший теряет всё или, наоборот, приобретает нечто большее, поистине бесценное.

Качество: WEB-DL 1080p
Формат: MKV

Видео: 1912x798 (2.396), 24,000 fps, MPEG-4 AVC ~4500 kbps avg, 0.125 bit/pixel
Аудио#1: Русский, 48 kHz, AC3, 3/2 (L,C,R,l,r) + LFE ch, ~384 kbps avg |СВ Студия|
Аудио#2: Английский, 48 kHz, AC3, 3/2 (L,C,R,l,r) + LFE ch, ~384 kbps avg |Оригинал|
скриншот  скриншот  скриншот  скриншот  

Формат : Matroska
Версия формата : Version 4
Размер файла : 4,13 Гбайт
Продолжительность : 1 ч. 50 м.
Общий поток : 5355 Кбит/сек
Дата кодирования : UTC 2019-06-15 18:24:04
Программа кодирования : mkvmerge v27.0.0 ('Metropolis') 32-bit
Библиотека кодирования : libebml v1.3.6 + libmatroska v1.4.9
Обложка : Yes
Attachments : small_cover_land.jpg / cover.jpg / cover_land.jpg / small_cover.jpg

Видео
Идентификатор : 1
Формат : AVC
Формат/Информация : Advanced Video Codec
Профиль формата : High@L4
Настройки формата : CABAC / 5 Ref Frames
Параметр CABAC формата : Да
Параметр RefFrames формата : 5 кадров
Идентификатор кодека : V_MPEG4/ISO/AVC
Продолжительность : 1 ч. 50 м.
Битрейт : 4585 Кбит/сек
Ширина : 1912 пикселей
Высота : 798 пикселей
Соотношение сторон : 2,40:1
Режим частоты кадров : Постоянный
Частота кадров : 24,000 кадра/сек
Цветовое пространство : YUV
Субдискретизация насыщенности : 4:2:0
Битовая глубина : 8 бит
Тип развёртки : Прогрессивная
Бит/(Пиксели*Кадры) : 0.125
Размер потока : 3,54 Гбайт (86%)
Default : Да
Forced : Нет
Цветовой диапазон : Limited
Основные цвета : BT.709
Характеристики трансфера : BT.709
Коэффициенты матрицы : BT.709

Аудио #1
Идентификатор : 2
Формат : AC-3
Формат/Информация : Audio Coding 3
Коммерческое название : Dolby Digital
Идентификатор кодека : A_AC3
Продолжительность : 1 ч. 50 м.
Вид битрейта : Постоянный
Битрейт : 384 Кбит/сек
Каналы : 6 каналов
Channel layout : L R C LFE Ls Rs
Частота : 48,0 КГц
Частота кадров : 31,250 кадров/сек (1536 SPF)
Битовая глубина : 16 бит
Метод сжатия : С потерями
Задержка видео : -42 мс.
Размер потока : 303 Мбайт (7%)
Язык : Russian
ServiceKind/String : Complete Main
Default : Да
Forced : Нет

Аудио #2
Идентификатор : 3
Формат : AC-3
Формат/Информация : Audio Coding 3
Коммерческое название : Dolby Digital
Идентификатор кодека : A_AC3
Продолжительность : 1 ч. 50 м.
Вид битрейта : Постоянный
Битрейт : 384 Кбит/сек
Каналы : 6 каналов
Channel layout : L R C LFE Ls Rs
Частота : 48,0 КГц
Частота кадров : 31,250 кадров/сек (1536 SPF)
Битовая глубина : 16 бит
Метод сжатия : С потерями
Задержка видео : -42 мс.
Размер потока : 303 Мбайт (7%)
Язык : English
ServiceKind/String : Complete Main
Default : Нет
Forced : Нет

Меню
00:00:00.000 : en:1
00:04:53.000 : en:2
00:15:06.000 : en:3
00:26:56.000 : en:4
00:37:33.000 : en:5
00:46:07.000 : en:6
00:56:21.000 : en:7
01:09:01.000 : en:8
01:19:45.000 : en:9
01:28:00.000 : en:10
01:35:47.000 : en:11
01:44:37.000 : en:12

pb.wtf



Скачать Операция «Колибри» через торрент https://i110.fastpic.ru/big/2019/0615/cc/67772a46a0851f3d854a9a6697a7cccc.jpg Скачать фильм Операция «Колибри» через торрент бесплантно в хорошем качестве Описание: Двоюродные братья Винсент и Антон живут в мире высокочастотного трейдинга, где каждая миллисекунда может стоить миллиарды. Они ... 9 10 7
Торрент: Зарегистрирован [2019-06-16 01:27] · скачан: 279 раз
Статус: √ проверено
Размер: 4.13 GB
Как cкачать? Как скачать Операция «Колибри» через торрент | qTorrent

% Раздел Тема Автор DL S | L
Фильмы (HD 720p, 1080p) (48-60 fps) [ 3.26 GB ] Операция «Колибри» / The Hummingbird Project [2018 BDRip 720p / 60 FPS ] от R.G. HD-Films slaventi-69 Скачать
3 | 0
Фильмы 2018 [DVDrip, WEB-DLRip, HDrip] (DUB, MVO) [ 1.46 GB ] Операция «Колибри» / The Hummingbird Project [2018 BDRip-AVC] - OlLanDGroup Skandar2019 Скачать
1 | 0
Фильмы 2018 [DVDrip, WEB-DLRip, HDrip] (DUB, MVO) [ 2.5 GB ] Операция «Колибри» / The Hummingbird Project [2018 BDRip-AVC] +2xMVO bober100 Скачать
2 | 0
Фильмы 2018 [DVDrip, WEB-DLRip, HDrip] (DUB, MVO) [ 1.41 GB ] Операция «Колибри» / The Hummingbird Project [2018 BDRip] - Twi7ter Скачать
22 | 0
Фильмы (Blu-ray, BD-Remux, HDDVD) [ 19.12 GB ] Операция «Колибри» / The Hummingbird Project [2018 BD Remux 1080p] +2xMVO bober100 Скачать
1 | 0
Фильмы 2018 [DVDrip, WEB-DLRip, HDrip] (DUB, MVO) [ 1.46 GB ] Операция «Колибри» / The Hummingbird Project [2018 BDRip] bober100 Скачать
1 | 0
Фильмы [HD 720p, 1080p] (Хороший звук DUB, MVO) [ 7.1 GB ] Операция «Колибри» / The Hummingbird Project [2018 BDRip 720p] +2xMVO bober100 Скачать
1 | 0

28-11-2019 20:33  

Отключить всю рекламу на сайте

    Дорогой пользователь! Огромная просьба, поблагодарите релизера, оцените раздачу и оставьте свои комментарий, если Вы скачали Операция «Колибри» через торрент бесплатно! Внесите свою лепту в развитие PiratBit!
    Комментировать посты могут только пользователи прошедшие не сложную регистрацию
    Показать сообщения:    

    Операция «Колибри» через торрент
    Скачать бесплатно Операция «Колибри»
    Операция «Колибри» скачать торрент
    Операция «Колибри» смотреть онлайн
    Cкачать фильм Операция «Колибри» бесплатно
    Операция «Колибри» скачать торрент в хорошем качестве
    Операция «Колибри» смотреть онлайн бесплатно в хорошем качестве


    Вы не можете начинать темы
    Вы не можете отвечать на сообщения
    Вы не можете редактировать свои сообщения
    Вы не можете удалять свои сообщения
    Вы не можете голосовать в опросах
    Вы не можете прикреплять файлы к сообщениям
    Вы можете скачивать файлы