MEGA SALE -75% Borderlands 3 Super Deluxe всего за 550р. 180 руб. (супер цена). Внимание количество ограничено!!!

iTunes

1+1

iTunes

мы

iTunes

1

iTunes

Чернобыль

iTunes

Ральф против интернета

Лицензия

ПШазам

Лицензия

Игра престолов

Лицензия

30
pack

ВАЖНО

!!Акция!!

Alien_RageХит недели

RePack

Resident Evil 21

ИГРА 18+

pack

RePack

Metro:Exodus

!!Акция!!

Alien_Rage

RePack

fifa19

RePack

Assassins Creed: Odyssey

RePack

NEED FOR SPEED™ PAYBACK

3 сезон

9 сезон

Бесстыжие 9 сезон

Все сериалы

все сериалы на PB.wtf

RePack

FAR CRY 5
Ребята, катастрофически не хватает 1900р. для оплаты серверов за АВГУСТ (всвязи с блокировками трафик упал в 3 раза), 1-2р., выручайте.
  

Во имя чести / Ji jie hao (Сяоган Фэн) [2007, боевик, драма, военный, биография, история, BDRip 1080p by msltel] MVO pb.wtf

Во имя чести через торрент pb.wtf

Размер: 11.46 GB | Добавлен: 3 мес. 28 д. назад | Торрент скачан:2 раза
Скачать  

16-06-2019 06:19 Во имя чести Скачать торрент  

Название: Во имя чести
Оригинальное название: Ji jie hao
Год выпуска: 2007
Страна: Гонконг, Китай
Жанр: боевик, драма, военный, биография, история
Продолжительность: 02:03:51
Перевод: профессиональный многоголосый

Режиссер: Сяоган Фэн
В ролях: Ханьюй Чжан, Чао Ден, Тиффани Тан, Фань Ляо, Баоцян Ван, Цзюнь Ху, Жэнь Цюань, Минг Ху, Ли Найвэнь, Хенг Фу, Чен Ли, Ло Хайцюн, Юн Лао, Фил Джонс, Джан Ванг, Бин Чжан, Ксяо Хань, Янг Ванг

О фильме: Во время Хуайхайского сражения в 1948 году между китайскими коммунистами и войсками Гоминьдана командир 9-й роты 3-го батальона 139-го полка Отдельной 2-й армии Гу Цзыди получает приказ оборонять заброшенную шахту. К тому моменту после тяжёлых боёв в его роте из 120 бойцов в живых осталось всего 47. Ему приказано удерживать участок до тех пор, пока не прозвучит сигнал горна. Гу Цзыди со своими солдатами отбивает несколько атак превосходящих сил гоминьдановцев. Хотя несколько бойцов говорили, что слышали сигнал, сам Гу Цзыди, вследствие контузии, ничего не слышал и запретил отступать. Через несколько дней все бойцы, кроме самого Гу Цзыди, погибают, не дождавшись сигнала к отступлению... В основе сюжета фильма лежит реальный случай. (Википедия)



Качество: BDRip 1080p
Формат: MKV
Видео: MPEG-4 AVC, 10.2 Mбит/с, 1874x822
Аудио 1: русский, DTS, 1509 kbps, 6 ch, 48 kHz [закадровый многоголосый, CP Digital]
Аудио 2: китайский, DTS, 1509 kbps, 6 ch, 48 kHz [оригинал]
Субтитры 1: русские
Субтитры 2: английские
Главы/чаптеры
Общее
Уникальный идентификатор : 191461686604810986397518744514254479811 (0x900A2DF6903B5D808AAAB35579A621C3)
Полное имя : D:\Video\Во имя чести.2007.BDRip 1080p by msltel.mkv
Формат : Matroska
Версия формата : Version 4
Размер файла : 11,5 Гбайт
Продолжительность : 2 ч. 3 м.
Общий поток : 13,2 Мбит/сек
Название фильма : Rip by msltel
Дата кодирования : UTC 2019-06-16 03:37:13
Программа кодирования : mkvmerge v8.2.0 ('World of Adventure') 64bit
Библиотека кодирования : libebml v1.3.1 + libmatroska v1.4.2

Видео
Идентификатор : 1
Формат : AVC
Формат/Информация : Advanced Video Codec
Профиль формата : High@L4.1
Настройки формата : CABAC / 4 Ref Frames
Параметр CABAC формата : Да
Параметр RefFrames формата : 4 кадра
Идентификатор кодека : V_MPEG4/ISO/AVC
Продолжительность : 2 ч. 3 м.
Битрейт : 10,2 Мбит/сек
Ширина : 1874 пикселя
Высота : 822 пикселя
Соотношение сторон : 2,25:1
Режим частоты кадров : Постоянный
Частота кадров : 24,000 кадра/сек
Цветовое пространство : YUV
Субдискретизация насыщенности : 4:2:0
Битовая глубина : 8 бит
Тип развёртки : Прогрессивная
Бит/(Пиксели*Кадры) : 0.277
Размер потока : 8,85 Гбайт (77%)
Библиотека кодирования : x264 core 157 r2935 545de2f
Настройки программы : cabac=1 / ref=4 / deblock=1:-2:-2 / analyse=0x3:0x113 / me=umh / subme=11 / psy=1 / psy_rd=1.00:0.15 / mixed_ref=1 / me_range=32 / chroma_me=1 / trellis=2 / 8x8dct=1 / cqm=0 / deadzone=21,11 / fast_pskip=0 / chroma_qp_offset=-3 / threads=6 / lookahead_threads=1 / sliced_threads=0 / nr=0 / decimate=1 / interlaced=0 / bluray_compat=0 / constrained_intra=0 / bframes=11 / b_pyramid=2 / b_adapt=2 / b_bias=0 / direct=1 / weightb=1 / open_gop=0 / weightp=2 / keyint=230 / keyint_min=23 / scenecut=40 / intra_refresh=0 / rc_lookahead=40 / rc=crf / mbtree=1 / crf=21.0 / qcomp=0.60 / qpmin=0 / qpmax=69 / qpstep=4 / vbv_maxrate=50000 / vbv_bufsize=62500 / crf_max=0.0 / nal_hrd=none / filler=0 / ip_ratio=1.40 / aq=1:1.00
Язык : Chinese
Default : Да
Forced : Нет

Аудио #1
Идентификатор : 2
Формат : DTS
Формат/Информация : Digital Theater Systems
Идентификатор кодека : A_DTS
Продолжительность : 2 ч. 3 м.
Вид битрейта : Постоянный
Битрейт : 1509 Кбит/сек
Каналы : 6 каналов
ChannelLayout : C L R Ls Rs LFE
Частота : 48,0 КГц
Частота кадров : 93,750 кадра/сек (512 SPF)
Битовая глубина : 24 бит
Метод сжатия : С потерями
Размер потока : 1,31 Гбайт (11%)
Заголовок : MVO CP Digital
Язык : Russian
Default : Да
Forced : Нет

Аудио #2
Идентификатор : 3
Формат : DTS
Формат/Информация : Digital Theater Systems
Идентификатор кодека : A_DTS
Продолжительность : 2 ч. 3 м.
Вид битрейта : Постоянный
Битрейт : 1509 Кбит/сек
Каналы : 6 каналов
ChannelLayout : C L R Ls Rs LFE
Частота : 48,0 КГц
Частота кадров : 93,750 кадра/сек (512 SPF)
Битовая глубина : 24 бит
Метод сжатия : С потерями
Размер потока : 1,31 Гбайт (11%)
Заголовок : original
Язык : Chinese
Default : Нет
Forced : Нет

Текст #1
Идентификатор : 4
Формат : UTF-8
Идентификатор кодека : S_TEXT/UTF8
Идентификатор кодека/Информация : UTF-8 Plain Text
Продолжительность : 1 ч. 58 м.
Битрейт : 75 бит/сек
ElementCount : 1621
Размер потока : 65,7 Кбайт (0%)
Заголовок : русские
Язык : Russian
Default : Нет
Forced : Нет

Текст #2
Идентификатор : 5
Формат : UTF-8
Идентификатор кодека : S_TEXT/UTF8
Идентификатор кодека/Информация : UTF-8 Plain Text
Продолжительность : 1 ч. 54 м.
Битрейт : 43 бит/сек
ElementCount : 1668
Размер потока : 36,3 Кбайт (0%)
Заголовок : английские
Язык : English
Default : Нет
Forced : Нет

Меню
00:00:00.000 : en:00:00:00.000
00:00:21.167 : en:00:00:21.167
00:02:20.917 : en:00:02:20.917
00:03:08.125 : en:00:03:08.125
00:14:50.708 : en:00:14:50.708
00:17:26.000 : en:00:17:26.000
00:25:59.750 : en:00:25:59.750
00:32:07.250 : en:00:32:07.250
00:46:09.292 : en:00:46:09.292
00:52:43.375 : en:00:52:43.375
00:57:33.167 : en:00:57:33.167
01:03:07.583 : en:01:03:07.583
01:14:02.917 : en:01:14:02.917
01:17:34.083 : en:01:17:34.083
01:22:35.917 : en:01:22:35.917
01:29:50.667 : en:01:29:50.667
01:35:34.375 : en:01:35:34.375
01:44:15.875 : en:01:44:15.875
01:48:41.292 : en:01:48:41.292
01:55:57.667 : en:01:55:57.667
pb.wtf



Скачать Во имя чести через торрент https://d.radikal.ru/d22/1906/30/e8b185a2314d.jpg Скачать фильм Во имя чести через торрент бесплантно в хорошем качестве О фильме: Во время Хуайхайского сражения в 1948 году между китайскими коммунистами и войсками Гоминьдана командир 9-й роты 3-го батальона ... 10 10 2
Торрент: Зарегистрирован [2019-06-16 06:19] · скачан: 2 раз
Статус: √ проверено
Размер: 11.46 GB
Как cкачать? Как скачать Во имя чести через торрент | qTorrent

% Раздел Тема Автор DL S | L
Азиатские фильмы [ 4.49 GB ] Во имя чести / Ji jie hao [2007 военный биография история BDRip 720p by msltel] MVO msltel Скачать
1 | 1


>> Регистрируемся здесь <<






Отзывы и комментарии о схеме читаем и пишем здесь: ---> Отзывы и комментарии о схеме

Новые благодарочки в телеграм довольных пользователей:
скриншот   скриншот   скриншот   скриншот   скриншот
    Дорогой пользователь! Огромная просьба, поблагодарите релизера, оцените раздачу и оставьте свои комментарий, если Вы скачали Во имя чести через торрент бесплатно! Внесите свою лепту в развитие PiratBit!
    Комментировать посты могут только пользователи прошедшие не сложную регистрацию
    Показать сообщения:    

    Во имя чести через торрент
    Скачать бесплатно Во имя чести
    Во имя чести скачать торрент
    Во имя чести смотреть онлайн
    Cкачать фильм Во имя чести бесплатно
    Во имя чести скачать торрент в хорошем качестве
    Во имя чести смотреть онлайн бесплатно в хорошем качестве


    Вы не можете начинать темы
    Вы не можете отвечать на сообщения
    Вы не можете редактировать свои сообщения
    Вы не можете удалять свои сообщения
    Вы не можете голосовать в опросах
    Вы не можете прикреплять файлы к сообщениям
    Вы можете скачивать файлы