Ссылка на приватное зеркало нашего сайта всего за 1$. Внимание количество ограничено!!!

2 сезон

iTunes

1 сезон

1

2 сезон

2 сезон

iTunes

1 сезон

RePack

30

Ultimate

ВАЖНО

ИГРА 18+

pack

RePack

MK11
pack

Забери бонус

RePack

jed

!!Акция!!

Alien_Rage

RePack

fifa19

RePack

Assassins Creed: Odyssey

RePack

NEED FOR SPEED™ PAYBACK

4 сезон

9 сезон

Бесстыжие 9 сезон

Все сериалы

все сериалы на PB.wtf

RePack

FAR CRY 5
  

Розуэлл, Нью-Мексико / Roswell, New Mexico / Сезон: 1 / Серии: 1-13 из 13 (Тим Эндрю, Пол Уэсли, Джули Плек, Шири Эпплби) [2019, фантастика, драма, мелодрама, WEB-DL 1080p] MVO [TVShows] pb.wtf

Розуэлл, Нью-Мексико через торрент pb.wtf

Размер: 31.42 GB | Добавлен: 1 год 5 мес. назад | Торрент скачан:3 раза
Скачать  

16-06-2019 06:29 Розуэлл, Нью-Мексико Скачать торрент  

Розуэлл, Нью-Мексико | Roswell, New Mexico Год выпуска: 2019
Страна: США
Жанр: Фантастика, драма, мелодрама
Продолжительность: ~ 00:42:00
Перевод: Профессиональный (многоголосый закадровый) | TVShows
Субтитры: английские (кроме 13 серии)

Режиссёр: Тим Эндрю, Джули Плек, Лэнс Андерсон

В ролях:

Джанин Мэйсон, Хезер Сайрус Хемменс, Уилльям Грили, Роза Арредондо, Стефани Хилл, Тайлер Блэкберн, Нэйтан Парсонс, Дж. Нэйтан Симмонс

Описание:

Лиз Ортехо возвращается в родной город и обнаруживает, что её школьный возлюбленный на самом деле пришелец



Качество: WEB-DL 1080p
Контейнер: MKV

Видео: MPEG-4 AVC, 1920x1080 (16:9), 23.976 fps, ~6315 Kbps
Аудио 1: 48 kHz, AC3, 6 ch, 384 kbps | TVShows
Аудио 2: 48 kHz, E-AC3, 6 ch, 640 kbps | Original


Реклама: отсутствует
General
Unique ID                   : 290426167287753021009043493347403179484 (0xDA7E0B939FAFA1CD60C7A056A0B325DC)
Complete name               : F:\Roswell.New.Mexico.S01.1080p.TVShows\Roswell.New.Mexico.S01E01.1080p.TVShows.mkv
Format                      : Matroska
Format version              : Version 4 / Version 2
File size                   : 2.18 GiB
Duration                    : 42 min 26 s
Overall bit rate            : 7 341 kb/s
Encoded date                : UTC 2019-01-25 17:40:28
Writing application         : mkvmerge v29.0.0 ('Like It Or Not') 64-bit
Writing library             : libebml v1.3.6 + libmatroska v1.4.9

Video
ID                          : 1
Format                      : AVC
Format/Info                 : Advanced Video Codec
Format profile              : High@L4
Format settings             : CABAC / 4 Ref Frames
Format settings, CABAC      : Yes
Format settings, ReFrames   : 4 frames
Codec ID                    : V_MPEG4/ISO/AVC
Duration                    : 42 min 26 s
Bit rate mode               : Constant
Bit rate                    : 6 315 kb/s
Nominal bit rate            : 10 000 kb/s
Width                       : 1 920 pixels
Height                      : 1 080 pixels
Display aspect ratio        : 16:9
Frame rate mode             : Constant
Frame rate                  : 23.976 (24000/1001) FPS
Color space                 : YUV
Chroma subsampling          : 4:2:0
Bit depth                   : 8 bits
Scan type                   : Progressive
Bits/(Pixel*Frame)          : 0.127
Stream size                 : 1.87 GiB (86%)
Default                     : Yes
Forced                      : No
Color range                 : Limited
Color primaries             : BT.709
Transfer characteristics    : BT.709
Matrix coefficients         : BT.709

Audio #1
ID                          : 2
Format                      : AC-3
Format/Info                 : Audio Coding 3
Codec ID                    : A_AC3
Duration                    : 42 min 26 s
Bit rate mode               : Constant
Bit rate                    : 384 kb/s
Channel(s)                  : 6 channels
Channel positions           : Front: L C R, Side: L R, LFE
Sampling rate               : 48.0 kHz
Frame rate                  : 31.250 FPS (1536 SPF)
Bit depth                   : 16 bits
Compression mode            : Lossy
Stream size                 : 117 MiB (5%)
Title                       : TVShows
Language                    : Russian
Service kind                : Complete Main
Default                     : Yes
Forced                      : Yes

Audio #2
ID                          : 3
Format                      : E-AC-3
Format/Info                 : Enhanced Audio Coding 3
Codec ID                    : A_EAC3
Duration                    : 42 min 26 s
Bit rate mode               : Constant
Bit rate                    : 640 kb/s
Channel(s)                  : 6 channels
Channel positions           : Front: L C R, Side: L R, LFE
Sampling rate               : 48.0 kHz
Frame rate                  : 187.500 FPS (256 SPF)
Compression mode            : Lossy
Stream size                 : 194 MiB (9%)
Title                       : Original
Language                    : English
Service kind                : Complete Main
Default                     : No
Forced                      : No

Text
ID                          : 4
Format                      : UTF-8
Codec ID                    : S_TEXT/UTF8
Codec ID/Info               : UTF-8 Plain Text
Duration                    : 41 min 53 s
Bit rate                    : 78 b/s
Count of elements           : 801
Stream size                 : 24.0 KiB (0%)
Title                       : English
Language                    : English
Default                     : No
Forced                      : No
Когда раздача ведётся путём добавления новых серий, при каждом добавлении создётся новый торрент. Чтобы начать докачку новой серии, пользователям необходимо сделать следующее:
(1) остановить скачивание,
(2) удалить старый торрент у себя из клиента (старые серии удалять не надо),
(3) скачать новый торрент и запустить его у себя в клиенте вместо старого, при этом указать клиенту путь в старую папку, куда и должно происходить скачивание новых серий.
Ваш клиент при этом должен произвести хеширование (проверку) старой папки (если не производит сам - помогите ему сделать это), и будет докачивать только те серии, которых у вас ещё нет. Старые серии при этом не удаляются, а продолжают раздаваться!
Eсли вы уже удалили старые серии, то предотвратить повторную закачку старых серий можно, отжав галочку в соответсвующих местах при запуске нового торрента. По возможности, желательно не удалять старые серии как можно дольше, чтобы релизёр не столько продолжал раздавать старые серии, а смог сконцентрироваться на новых.
pb.wtf



Скачать Розуэлл, Нью-Мексико через торрент https://i84.fastpic.ru/big/2019/0126/b9/37555dde3e51dbbc6ed81fdafb1c9cb9.png Скачать фильм Розуэлл, Нью-Мексико через торрент бесплантно в хорошем качестве Описание: Лиз Ортехо возвращается в родной город и обнаруживает, что её школьный возлюбленный на самом деле ... 10 10 2
Торрент: Зарегистрирован [2019-06-16 06:29] · скачан: 3 раз
Статус: √ проверено
Размер: 31.42 GB
Как cкачать? Как скачать Розуэлл, Нью-Мексико через торрент | qTorrent

% Раздел Тема Автор DL S | L
Зарубежные сериалы [ 19.49 GB ] Розуэлл Нью-Мексико / Roswell New Mexico / Сезон: 2 / Серии: 1-13 из 13 [2020 WEB-DL 720p] MVO [LostFilm] bober100 Скачать
1 | 0
Зарубежные сериалы [ 39.22 GB ] Розуэлл Нью-Мексико / Roswell New Mexico / Сезон: 2 / Серии: 1-13 из 13 [2020 WEB-DL 1080p] MVO [LostFilm] bober100 Скачать
1 | 0
Зарубежные сериалы [ 10.29 GB ] Розуэлл Нью-Мексико / Roswell New Mexico / Сезон: 1 / Серии: 1-13 из 13 [2019 WEB-DLRip] MVO [Lostfilm] bober100 Скачать
1 | 0
Зарубежные сериалы [ 26.9 GB ] Розуэлл Нью-Мексико / Roswell New Mexico / Сезон: 1 / Серии: 1-13 из 13 [2019 WEB-DL 1080p] MVO [Jaskier] bober100 Скачать
1 | 0
Зарубежные сериалы [ 6.43 GB ] Розуэлл Нью-Мексико / Roswell New Mexico / Сезон: 1 / Серии: 1-13 из 13 [2019 WEB-DLRip] MVO [Jaskier] bober100 Скачать
1 | 0
Зарубежные сериалы [ 32.41 GB ] Розуэлл Нью-Мексико / Roswell New Mexico / Сезон: 1 / Серии: 1-13 из 13 [2019 WEB-DL 1080p] [MVO] killermax2013 Скачать
1 | 0

28-11-2019 20:33  

Отключить всю рекламу на сайте

    Дорогой пользователь! Огромная просьба, поблагодарите релизера, оцените раздачу и оставьте свои комментарий, если Вы скачали Розуэлл, Нью-Мексико через торрент бесплатно! Внесите свою лепту в развитие PiratBit!
    Комментировать посты могут только пользователи прошедшие не сложную регистрацию
    Показать сообщения:    

    Розуэлл, Нью-Мексико через торрент
    Скачать бесплатно Розуэлл, Нью-Мексико
    Розуэлл, Нью-Мексико скачать торрент
    Розуэлл, Нью-Мексико смотреть онлайн
    Cкачать фильм Розуэлл, Нью-Мексико бесплатно
    Розуэлл, Нью-Мексико скачать торрент в хорошем качестве
    Розуэлл, Нью-Мексико смотреть онлайн бесплатно в хорошем качестве


    Вы не можете начинать темы
    Вы не можете отвечать на сообщения
    Вы не можете редактировать свои сообщения
    Вы не можете удалять свои сообщения
    Вы не можете голосовать в опросах
    Вы не можете прикреплять файлы к сообщениям
    Вы можете скачивать файлы