1 сезон

3 сезон

iTunes

1

iTunes

DUB Netflix

iTunes

13

1 сезон

RePack

30

Deluxe

pack

Легкие деньги

ВАЖНО

ИГРА 18+

pack

RePack

MK11

RePack

jed

RePack

fifa19

RePack

RDR2

RePack

NEED FOR SPEED™ PAYBACK

4 сезон

9 сезон

Бесстыжие 9 сезон

Все сериалы

все сериалы на PB.wtf

RePack

FAR CRY 5

Anonymous, доброй ночи, мы не успеваем до 1 числа собрать деньги на оплату серверов, помогите нам пожалуйста в это трудное время. В качестве благодарности мы отключим Вам всю рекламу на сайте (укажите свой ник в строку Ваше имя)!

×
  
Magnet ссылка

Пока жив человек (Григорий Аронов) [1963, СССР, драма, SATRip от AVP Studio] pb.wtf

Пока жив человек через торрент pb.wtf

Качают: 2 [ 0 KB/s ]
Размер: 1.09 GB | Добавлен: 1 год 11 мес. назад | Торрент скачан:10 раз
Скачать  

16-06-2019 07:45 Пока жив человек Скачать торрент  

Пока жив человек
Страна: СССР
Производство: Ленфильм

Жанр: драма
Год выпуска: 1963
Продолжительность: 01:19:53

Перевод: Не требуется
Cубтитры: нет
Оригинальная аудиодорожка: русский

Режиссер: Григорий Аронов

В ролях:
Владимир Заманский, Нина Ургант, Ольга Забара, Сергей Плотников, Елена Королёва, Владимир Костин, Ольга Порудолинская, Леонид Галлис, Лидия Штыкан, Бруно Фрейндлих, Виктор Чекмарёв, Юрий Родионов, Алексей Ян...
Об актёрах подробней

Описание:
Инженер-изобретатель электромеханического завода Широков становится жертвой уличной неразберихи и надолго попадает в больницу. Коллеги, узнав о случившемся, делают все возможное, чтобы последнее изобретение Широкова стало достоянием родного завода...

Исходник: DVB
Качество видео: SATRip
Формат видео: AVI

Видео: 688x512 (4:3), 25,000 кадров/сек, XviD ~ 1752 kbps avg, 0.199 bit/pixel
Аудио: 48 kHz, Dolby Digital AC3 2.0, 192 kbps

Раздача от:
Общее
Полное имя : Poka.zhiv.chelovek.1963.SATRip_[New-team]_by_AVP_Studio.avi
Формат : AVI
Формат/Информация : Audio Video Interleave
Размер файла : 1,09 Гбайт
Продолжительность : 1 ч. 19 м.
Общий поток : 1954 Кбит/сек
Программа кодирования : VirtualDubMod 1.5.10.3 | www.virtualdub-fr.org || (build 2550/release)
Библиотека кодирования : VirtualDubMod build 2550/release

Видео
Идентификатор : 0
Формат : MPEG-4 Visual
Профиль формата : Advanced Simple@L5
Настройки формата : BVOP1 / Custom Matrix
Параметр BVOP формата : 1
Параметр QPel формата : Нет
Параметр GMC формата : Без точки перехода
Параметр матрицы формата : Выборочная
Идентификатор кодека : XVID
Идентификатор кодека/Подсказка : XviD
Продолжительность : 1 ч. 19 м.
Битрейт : 1752 Кбит/сек
Ширина : 688 пикселей
Высота : 512 пикселей
Соотношение сторон : 4:3
Частота кадров : 25,000 кадров/сек
Цветовое пространство : YUV
Субдискретизация насыщенности : 4:2:0
Битовая глубина : 8 бит
Тип развёртки : Прогрессивная
Метод сжатия : С потерями
Бит/(Пиксели*Кадры) : 0.199
Размер потока : 1001 Мбайт (90%)
Библиотека кодирования : XviD 73

Аудио
Идентификатор : 1
Формат : AC-3
Формат/Информация : Audio Coding 3
Коммерческое название : Dolby Digital
Идентификатор кодека : 2000
Продолжительность : 1 ч. 19 м.
Вид битрейта : Постоянный
Битрейт : 192 Кбит/сек
Каналы : 2 канала
ChannelLayout : L R
Частота : 48,0 КГц
Частота кадров : 31,250 кадров/сек (1536 SPF)
Битовая глубина : 16 бит
Метод сжатия : С потерями
Размер потока : 110 Мбайт (10%)
Выравнивание : Разделение по промежуткам
Продолжительность промежутка : 40 мс. (1,00 видеокадр)
Время предзагрузки промежутка : 500 мс
pb.wtf



Скачать Пока жив человек через торрент http://a.radikal.ru/a30/1912/6d/39bd4ea768b1.png Скачать фильм Пока жив человек через торрент бесплантно в хорошем качестве Описание:Инженер-изобретатель электромеханического завода Широков становится жертвой уличной неразберихи и надолго попадает в больницу. ... 5 10 1
Торрент: Зарегистрирован [2019-06-16 07:45] · скачан: 10 раз
Статус: √ проверено
Размер: 1.09 GB
Как cкачать? Как скачать Пока жив человек через торрент | UTorrent

% Раздел Тема Автор DL S | L
Кино СССР [ 1.09 GB ] Пока жив человек [1963 СССР SATRip-AVC от AVP Studio] AVP Studio Скачать
1 | 3

28-11-2019 20:33  

Отключить всю рекламу на сайте

    Дорогой пользователь! Огромная просьба, поблагодарите релизера, оцените раздачу и оставьте свои комментарий, если Вы скачали Пока жив человек через торрент бесплатно! Внесите свою лепту в развитие PiratBit!
    Комментировать посты могут только пользователи прошедшие не сложную регистрацию
    Показать сообщения:    

    Пока жив человек через торрент
    Скачать бесплатно Пока жив человек
    Пока жив человек скачать торрент
    Пока жив человек смотреть онлайн
    Cкачать фильм Пока жив человек бесплатно
    Пока жив человек скачать торрент в хорошем качестве
    Пока жив человек смотреть онлайн бесплатно в хорошем качестве


    Вы не можете начинать темы
    Вы не можете отвечать на сообщения
    Вы не можете редактировать свои сообщения
    Вы не можете удалять свои сообщения
    Вы не можете голосовать в опросах
    Вы не можете прикреплять файлы к сообщениям
    Вы можете скачивать файлы