новый адрес пиратбит piratbit
Мега распродажа FORZA HORIZON 4 ULTIMATE+ВСЕ DLC+ОНЛАЙН всего за 499р. 349 руб. (супер цена). Внимание количество ограничено!!!

iTunes

1+1

iTunes

мы

iTunes

1

iTunes

Чернобыль

iTunes

Ральф против интернета

Лицензия

ПШазам

Лицензия

Игра престолов

Лицензия

30
pack

ВАЖНО

!!Акция!!

Alien_RageХит недели

RePack

Resident Evil 21

ИГРА 18+

pack

RePack

Metro:Exodus

!!Акция!!

Alien_Rage

RePack

fifa19

RePack

Assassins Creed: Odyssey

RePack

NEED FOR SPEED™ PAYBACK

3 сезон

9 сезон

Бесстыжие 9 сезон

Все сериалы

все сериалы на PB.wtf

RePack

FAR CRY 5
Ребята, катастрофически не хватает 1900р. для оплаты серверов за Октябрь (всвязи с блокировками трафик упал в 3 раза), 1-2р., выручайте.
  

Песнь прошедших дней (Альберт М. Мкртчян) [1982 г., Военный, драма, SATRip-AVC] pb.wtf

Песнь прошедших дней через торрент pb.wtf

Размер: 1.69 GB | Добавлен: 4 мес. 28 д. назад | Торрент скачан:1 раз
Скачать  

16-06-2019 07:53 Песнь прошедших дней Скачать торрент  

Песнь прошедших дней
Год выпуска: 1982
Страна: СССР
Жанр: Военный, драма
Продолжительность: 01:24:45

Режиссер: Альберт М. Мкртчян



В ролях: Шаум Казарян, Фрунзе Мкртчян, Верджалуйс Мириджанян, Гуж Манукян, Азат Гаспарян,
Нарина Багдасарян, Ашот Адамян, Галя Новенц, Александр Оганесян, Артуш Гедакян, Генрих Алавердян,
Самвел Седракян, Вреж Акопян, Арусь Азнавурян, Б. Газазян, Евгений Нерсесян, М. Товмасян

Описание: Действие фильма происходит в годы Великой Отечественной войны в городе Ленинакан.
Герои фильма - члены самодеятельной театральной труппы в провинциальном армянском городке,
разделившие со всей страной горести и утраты военного времени...

Качество: SATRip-AVC
Формат: MKV
Видео кодек: AVC
Аудио кодек: AC3
Видео: AVC, 700х562@746x562 , 25.0fps, 2600 Kbps
Аудио#1: AC3 , 2 ch , 48 kHz , 192 kbps
скриншот   скриншот   скриншот   скриншот  

Общее
Уникальный идентификатор : 183811299726842085549345680902441720003 (0x8A48C4C4AD8967A495504CF02240D8C3)
Полное имя : H:СССРПеснь прошедших дней 1982_SATRip-AVC_KORSAR).mkv
Формат : Matroska
Версия формата : Version 2
Размер файла : 1,69 Гбайт
Продолжительность : 1 ч. 24 м.
Общий поток : 2858 Кбит/сек
Дата кодирования : UTC 2019-03-03 11:28:17
Программа кодирования : mkvmerge v5.8.0 ('No Sleep / Pillow') built on Sep 2 2012 15:37:04
Библиотека кодирования : libebml v1.2.3 + libmatroska v1.3.0

Видео
Идентификатор : 1
Формат : AVC
Формат/Информация : Advanced Video Codec
Профиль формата : High@L4.1
Настройки формата : CABAC / 15 Ref Frames
Параметр CABAC формата : Да
Параметр RefFrames формата : 15 кадров
Идентификатор кодека : V_MPEG4/ISO/AVC
Продолжительность : 1 ч. 24 м.
Битрейт : 2600 Кбит/сек
Ширина : 700 пикселей
Высота : 562 пикселя
Соотношение сторон : 4:3
Соотношение сторон в оригинале : 4:3
Режим частоты кадров : Постоянный
Частота кадров : 25,000 кадров/сек
Цветовое пространство : YUV
Субдискретизация насыщенности : 4:2:0
Битовая глубина : 8 бит
Тип развёртки : Прогрессивная
Бит/(Пиксели*Кадры) : 0.264
Размер потока : 1,51 Гбайт (89%)
Библиотека кодирования : x264 core 152 r2851kMod ba24899
Настройки программы : cabac=1 / ref=15 / deblock=1:-2:-1 / analyse=0x3:0x133 / me=umh / subme=11 / psy=1 / fade_compensate=0.00 / psy_rd=1.05:0.10 / mixed_ref=1 / me_range=48 / chroma_me=1 / trellis=2 / 8x8dct=1 / cqm=0 / deadzone=21,11 / fast_pskip=0 / chroma_qp_offset=-3 / threads=12 / lookahead_threads=3 / sliced_threads=0 / nr=0 / decimate=0 / interlaced=0 / bluray_compat=0 / constrained_intra=0 / bframes=10 / b_pyramid=2 / b_adapt=2 / b_bias=0 / direct=3 / weightb=1 / open_gop=0 / weightp=2 / keyint=250 / keyint_min=25 / scenecut=40 / intra_refresh=0 / rc_lookahead=40 / rc=2pass / mbtree=0 / bitrate=2600 / ratetol=1.0 / qcomp=0.60 / qpmin=0 / qpmax=39 / qpstep=4 / cplxblur=20.0 / qblur=0.5 / vbv_maxrate=50000 / vbv_bufsize=62500 / nal_hrd=none / filler=0 / ip_ratio=1.25 / pb_ratio=1.30 / aq=1:1.00
Язык : English
Default : Да
Forced : Нет
Цветовой диапазон : Limited
Основные цвета : BT.601 PAL
Характеристики трансфера : BT.470 System B, BT.470 System G
Коэффициенты матрицы : BT.470 System B, BT.470 System G

Аудио
Идентификатор : 2
Формат : AC-3
Формат/Информация : Audio Coding 3
Параметр Endianness формата : Big
Идентификатор кодека : A_AC3
Продолжительность : 1 ч. 24 м.
Вид битрейта : Постоянный
Битрейт : 256 Кбит/сек
Каналы : 2 канала
Расположение каналов : Front: L R
Частота : 48,0 КГц
Частота кадров : 31,250 кадров/сек (1536 SPF)
Битовая глубина : 16 бит
Метод сжатия : С потерями
Размер потока : 155 Мбайт (9%)
Язык : Russian
Default : Да
Forced : Нет

pb.wtf



Скачать Песнь прошедших дней через торрент http://pic1.kartinco.top/images/12/y9jep.jpg Скачать фильм Песнь прошедших дней через торрент бесплантно в хорошем качестве Описание: Действие фильма происходит в годы Великой Отечественной войны в городе Ленинакан.Герои фильма - члены самодеятельной театральной ... 10 10 1
Торрент: Зарегистрирован [2019-06-16 07:53] · скачан: 1 раз
Статус: √ проверено
Размер: 1.69 GB
Как cкачать? Как скачать Песнь прошедших дней через торрент | qTorrent


>> Регистрируемся здесь <<






Отзывы и комментарии о схеме читаем и пишем здесь: ---> Отзывы и комментарии о схеме

Новые благодарочки в телеграм довольных пользователей:
скриншот   скриншот   скриншот   скриншот   скриншот
    Дорогой пользователь! Огромная просьба, поблагодарите релизера, оцените раздачу и оставьте свои комментарий, если Вы скачали Песнь прошедших дней через торрент бесплатно! Внесите свою лепту в развитие PiratBit!
    Комментировать посты могут только пользователи прошедшие не сложную регистрацию
    Показать сообщения:    

    Песнь прошедших дней через торрент
    Скачать бесплатно Песнь прошедших дней
    Песнь прошедших дней скачать торрент
    Песнь прошедших дней смотреть онлайн
    Cкачать фильм Песнь прошедших дней бесплатно
    Песнь прошедших дней скачать торрент в хорошем качестве
    Песнь прошедших дней смотреть онлайн бесплатно в хорошем качестве


    Вы не можете начинать темы
    Вы не можете отвечать на сообщения
    Вы не можете редактировать свои сообщения
    Вы не можете удалять свои сообщения
    Вы не можете голосовать в опросах
    Вы не можете прикреплять файлы к сообщениям
    Вы можете скачивать файлы