новый адрес
Мега распродажа FORZA HORIZON 4 ULTIMATE+ВСЕ DLC+ОНЛАЙН всего за 499р. 349 руб. (супер цена). Внимание количество ограничено!!!

iTunes

1+1

iTunes

мы

iTunes

1

iTunes

Чернобыль

iTunes

Ральф против интернета

Лицензия

ПШазам

Лицензия

Игра престолов

Лицензия

30
pack

ВАЖНО

!!Акция!!

Alien_RageХит недели

RePack

Resident Evil 21

ИГРА 18+

pack

RePack

Metro:Exodus

!!Акция!!

Alien_Rage

RePack

fifa19

RePack

Assassins Creed: Odyssey

RePack

NEED FOR SPEED™ PAYBACK

3 сезон

9 сезон

Бесстыжие 9 сезон

Все сериалы

все сериалы на PB.wtf

RePack

FAR CRY 5
Ребята, катастрофически не хватает 1900р. для оплаты серверов за Октябрь (всвязи с блокировками трафик упал в 3 раза), 1-2р., выручайте.
  

Джетт / Jett / Сезон: 1 / Серии: 1-9 из 9 (Себастьян Гутьеррес) [2019, драма, WEB-DL 1080p] MVO [Кириллица / Amedia] pb.wtf

Джетт через торрент pb.wtf

Размер: 29.64 GB | Добавлен: 3 мес. 5 д. назад | Торрент скачан:18 раз
Скачать  

16-06-2019 11:14 Джетт Скачать торрент  

Джетт / Jett
Год выпуска: 2019
Страна: США
Жанр: драма
Продолжительность: ~01:00:00 серия
Перевод: Профессиональный (многоголосый) | Кириллица по заказу Amedia
Субтитры: Russian (Forced, Full), English (SDH)

Режиссер: Себастьян Гутьеррес

rating


В ролях:

Карла Гуджино, Джанкарло Эспозито, Елена Анайя, Майкл Аронов, Гайте Янсен, Кристофер Бакус, Джил Беллоуз, Вайолет МакГроу, Люси Уолтерс, Мустафа Жакир

Описание:

Дейзи Джетт Ковальски — воровка экстра-класс, только освободившаяся из тюрьмы и вынужденная снова заняться тем, что у неё получается лучше всего — опустошать чужие сейфы. Ради последнего большого дела она собирает команду колоритных сообщников. Главную роль в «Джетт» исполняет одна из лучших современных американских актрис Карла Гуджино, последнее время играющая в хоррорах (например, в «Призраках дома на холме»), но здесь блистающая в образе героини боевика. За сценарий и режиссуру проекта отвечал автор «Поцелуя Иуды» и «Медового месяца» Себастьян Гутьеррес.

Качество: WEB-DL 1080p
Формат: MKV

Видео: 1920x1080 at 23.976 fps, MPEG-4 AVC, ~6000 kbps avg
Аудио#1: Russian: 48 kHz, AC3, 3/2 (L,C,R,l,r) + LFE ch, ~640 kbps avg |Многоголосый закадровый, Кириллица по заказу Amedia|
Аудио#2: English: 48 kHz, E-AC3, 3/2 (L,C,R,l,r) + LFE ch, ~640 kbps avg
скриншот  скриншот  скриншот  скриншот  скриншот  

Общее
Уникальный идентификатор : 136830156079334047946086488028606313389 (0x66F0878C9495EBE0F516E61A734F33AD)
Полное имя : C:\Jett.S01.1080p.AMZN.WEB-DL.DDP5.1.H.264-EniaHD\Jett.S01E01.Daisy.1080p.AMZN.WEB-DL.DDP5.1.H.264-EniaHD.mkv
Формат : Matroska
Версия формата : Version 4 / Version 2
Размер файла : 3,33 Гбайт
Продолжительность : 1 ч. 4 м.
Общий поток : 7337 Кбит/сек
Название фильма : Jett 01x01 (Daisy) - EniaHD
Дата кодирования : UTC 2019-06-16 08:37:02
Программа кодирования : mkvmerge v34.0.0 ('Sight and Seen') 64-bit
Библиотека кодирования : libebml v1.3.7 + libmatroska v1.5.0

Видео
Идентификатор : 1
Формат : AVC
Формат/Информация : Advanced Video Codec
Профиль формата : High@L4
Параметр CABAC формата : Да
Параметр RefFrames формата : 4 кадра
Идентификатор кодека : V_MPEG4/ISO/AVC
Продолжительность : 1 ч. 4 м.
Вид битрейта : Постоянный
Битрейт : 5911 Кбит/сек
Номинальный битрейт : 10000 Кбит/сек
Ширина : 1920 пикселей
Высота : 1080 пикселей
Соотношение сторон : 16:9
Режим частоты кадров : Постоянный
Частота кадров : 23,976 (24000/1001) кадра/сек
Цветовое пространство : YUV
Субдискретизация насыщенности : 4:2:0
Битовая глубина : 8 бит
Тип развёртки : Прогрессивная
Бит/(Пиксели*Кадры) : 0.119
Размер потока : 2,68 Гбайт (81%)
Язык : English
Default : Да
Forced : Нет
Цветовой диапазон : Limited
Основные цвета : BT.709
Характеристики трансфера : BT.709
Коэффициенты матрицы : BT.709

Аудио #1
Идентификатор : 2
Формат : AC-3
Формат/Информация : Audio Coding 3
Расширение режима : CM (complete main)
Параметр Endianness формата : Big
Идентификатор кодека : A_AC3
Продолжительность : 1 ч. 4 м.
Вид битрейта : Постоянный
Битрейт : 640 Кбит/сек
Каналы : 6 каналов
Расположение каналов : Front: L C R, Side: L R, LFE
Частота : 48,0 КГц
Частота кадров : 31,250 кадров/сек (1536 spf)
Метод сжатия : С потерями
Размер потока : 297 Мбайт (9%)
Язык : Russian
Default : Да
Forced : Нет

Аудио #2
Идентификатор : 3
Формат : E-AC-3
Формат/Информация : Audio Coding 3
Параметр Endianness формата : Big
Идентификатор кодека : A_EAC3
Продолжительность : 1 ч. 4 м.
Вид битрейта : Постоянный
Битрейт : 640 Кбит/сек
Каналы : 6 каналов
Расположение каналов : Front: L C R, Side: L R, LFE
Частота : 48,0 КГц
Частота кадров : 187,500 кадров/сек (256 spf)
Метод сжатия : С потерями
Размер потока : 297 Мбайт (9%)
Язык : English
Default : Нет
Forced : Нет

Текст #1
Идентификатор : 4
Формат : UTF-8
Идентификатор кодека : S_TEXT/UTF8
Идентификатор кодека/Информация : UTF-8 Plain Text
Заголовок : Forced
Язык : Russian
Default : Да
Forced : Да

Текст #2
Идентификатор : 5
Формат : UTF-8
Идентификатор кодека : S_TEXT/UTF8
Идентификатор кодека/Информация : UTF-8 Plain Text
Заголовок : Full
Язык : Russian
Default : Нет
Forced : Нет

Текст #3
Идентификатор : 6
Формат : UTF-8
Идентификатор кодека : S_TEXT/UTF8
Идентификатор кодека/Информация : UTF-8 Plain Text
Заголовок : SDH
Язык : English
Default : Нет
Forced : Нет

Когда раздача ведётся путём добавления новых серий, при каждом добавлении создётся новый торрент. Чтобы начать докачку новой серии, пользователям необходимо сделать следующее:
(1) остановить скачивание,
(2) удалить старый торрент у себя из клиента (старые серии удалять не надо),
(3) скачать новый торрент и запустить его у себя в клиенте вместо старого, при этом указать клиенту путь в старую папку, куда и должно происходить скачивание новых серий.
Ваш клиент при этом должен произвести хеширование (проверку) старой папки (если не производит сам - помогите ему сделать это), и будет докачивать только те серии, которых у вас ещё нет. Старые серии при этом не удаляются, а продолжают раздаваться!
Eсли вы уже удалили старые серии, то предотвратить повторную закачку старых серий можно, отжав галочку в соответсвующих местах при запуске нового торрента. По возможности, желательно не удалять старые серии как можно дольше, чтобы релизер не столько продолжал раздавать старые серии, а смог сконцентрироваться на новых.
pb.wtf



Скачать Джетт через торрент https://i5.imageban.ru/out/2019/06/21/cce578dc0e5b5fa86d0ad101d70c2180.jpg Скачать фильм Джетт через торрент бесплантно в хорошем качестве Описание: Дейзи Джетт Ковальски — воровка экстра-класс, только освободившаяся из тюрьмы и вынужденная снова заняться тем, что у неё ... 9 10 6
Торрент: Зарегистрирован [2019-08-12 03:15] · скачан: 18 раз
Статус: √ проверено
Размер: 29.64 GB
Как cкачать? Как скачать Джетт через торрент | qTorrent

% Раздел Тема Автор DL S | L
Зарубежные сериалы [ 10.64 GB ] Джетт / Jett / Сезон: 1 / Серии: 1-9 из 9 [2019 WEB-DLRip] [MVO] killermax2013 Скачать
1 | 0
Зарубежные сериалы [ 8.79 GB ] Джетт / Jett / Сезон: 1 / Серии: 1-9 из 9 [2019 WEBRip] [MVO] killermax2013 Скачать
1 | 0
Зарубежные сериалы [ 9.34 GB ] Джетт / Jett / Сезон: 1 / Серии: 1-9 из 9 [2019 WEB-DLRip] MVO [Кириллица] bober100 Скачать
1 | 0
Зарубежные сериалы [ 30.54 GB ] Джетт / Jett / Сезон: 1 / Серии: 1-9 из 9 [2019 WEBRip 1080p] [MVO] killermax2013 Скачать
1 | 0


>> Регистрируемся здесь <<






Отзывы и комментарии о схеме читаем и пишем здесь: ---> Отзывы и комментарии о схеме

Новые благодарочки в телеграм довольных пользователей:
скриншот   скриншот   скриншот   скриншот   скриншот

12-08-2019 18:18 Джетт Скачать торрент  

Обалденный сериал! Будем ждать второй сезон! pb.wtf



    Дорогой пользователь! Огромная просьба, поблагодарите релизера, оцените раздачу и оставьте свои комментарий, если Вы скачали Джетт через торрент бесплатно! Внесите свою лепту в развитие PiratBit!
    Комментировать посты могут только пользователи прошедшие не сложную регистрацию
    Показать сообщения:    

    Джетт через торрент
    Скачать бесплатно Джетт
    Джетт скачать торрент
    Джетт смотреть онлайн
    Cкачать фильм Джетт бесплатно
    Джетт скачать торрент в хорошем качестве
    Джетт смотреть онлайн бесплатно в хорошем качестве


    Вы не можете начинать темы
    Вы не можете отвечать на сообщения
    Вы не можете редактировать свои сообщения
    Вы не можете удалять свои сообщения
    Вы не можете голосовать в опросах
    Вы не можете прикреплять файлы к сообщениям
    Вы можете скачивать файлы