Ссылка на приватное зеркало нашего сайта всего за 1$. Внимание количество ограничено!!!

2 сезон

iTunes

1 сезон

1

2 сезон

2 сезон

iTunes

1 сезон

RePack

30

Ultimate

ВАЖНО

ИГРА 18+

pack

RePack

MK11
pack

Забери бонус

RePack

jed

!!Акция!!

Alien_Rage

RePack

fifa19

RePack

Assassins Creed: Odyssey

RePack

NEED FOR SPEED™ PAYBACK

4 сезон

9 сезон

Бесстыжие 9 сезон

Все сериалы

все сериалы на PB.wtf

RePack

FAR CRY 5
  

Чи / The Chi / Сезон: 2 / Серии: 1-10 из 10 (Дэйв Родригез, Таня Хэмилтон, Рик Фамуйива) [2019, драма, WEBRip 720p] DVO [Octopus] pb.wtf

Чи через торрент pb.wtf

Размер: 22.38 GB | Добавлен: 1 год 5 мес. назад | Торрент скачан:4 раза
Скачать  

16-06-2019 14:29 Чи Скачать торрент  

Чи / The Chi
Год выпуска: 2019
Страна: США
Жанр: драма
Продолжительность: ~ 00:58:00
Перевод: Любительский (двухголосый) | Octopus
Субтитры: отсутствуют

Режиссер: Дэйв Родригез, Таня Хэмилтон, Рик Фамуйива

rating

В ролях:

Алена Леуан, Тосин Морохунфола, Дэвид Алан Андерсон, Хосе Антонио Гарсия, Армандо Риско, Джейсон Митчелл, Оливия Бёрд

Описание:

Герои сериала — жители бедных южных районов Чикаго со сложной криминогенной обстановкой. Афроамериканцы, живущие здесь, вынуждены каждый день рисковать жизнью и искать возможность заработать. Подростки, живущие в Чикаго, быстро взрослеют. Таков и Алекс Хибберт: мальчику придётся рано распрощаться с детскими мечтами и приложить серьёзные усилия, чтобы чего-то добиться в жизни.

Качество: WEBRip 720p
Формат: MKV

Видео: h.264, ~ 5000 Кбит/с, 1280x720
Аудио: Русский, (AC3, 2 ch, 384 Кбит/с)
скриншот  скриншот  скриншот  

Общее
Уникальный идентификатор : 252262181345777751602453951472204612224 (0xBDC7EDCBABDB644C9F07F252BF8D8280)
Полное имя : D:\The.Chi.S02.720p.Octopus\The.Chi.S02E01.720p.Octopus.mkv
Формат : Matroska
Версия формата : Version 2
Размер файла : 2,19 Гбайт
Продолжительность : 58 м. 20 с.
Общий поток : 5368 Кбит/сек
Дата кодирования : UTC 2019-04-06 19:24:43
Программа кодирования : mkvmerge v8.3.0 ('Over the Horizon') 32bit
Библиотека кодирования : libebml v1.3.1 + libmatroska v1.4.2

Видео
Идентификатор : 1
Формат : AVC
Формат/Информация : Advanced Video Codec
Профиль формата : High@L4.1
Параметр CABAC формата : Да
Параметр RefFrames формата : 4 кадра
Идентификатор кодека : V_MPEG4/ISO/AVC
Продолжительность : 58 м. 20 с.
Битрейт : 5000 Кбит/сек
Ширина : 1280 пикселей
Высота : 720 пикселей
Соотношение сторон : 16:9
Режим частоты кадров : Постоянный
Частота кадров : 23,976 (24000/1001) кадра/сек
Цветовое пространство : YUV
Субдискретизация насыщенности : 4:2:0
Битовая глубина : 8 бит
Тип развёртки : Прогрессивная
Бит/(Пиксели*Кадры) : 0.226
Размер потока : 1,99 Гбайт (91%)
Библиотека кодирования : x264 core 142 r2431+42 c69a006 tMod [8-bit@all X86_64]
Настройки программы : cabac=1 / ref=4 / deblock=1:0:0 / analyse=0x3:0x133 / me=hex / subme=2 / psy=1 / fade_compensate=0.00 / psy_rd=1.00:0.00 / mixed_ref=1 / me_range=16 / chroma_me=1 / trellis=2 / 8x8dct=1 / cqm=0 / deadzone=21,11 / fast_pskip=0 / chroma_qp_offset=0 / threads=18 / lookahead_threads=5 / sliced_threads=0 / nr=0 / decimate=1 / interlaced=0 / bluray_compat=0 / constrained_intra=0 / fgo=0 / bframes=2 / b_pyramid=2 / b_adapt=2 / b_bias=0 / direct=1 / weightb=1 / open_gop=0 / weightp=2 / keyint=240 / keyint_min=23 / scenecut=40 / intra_refresh=0 / rc=abr / mbtree=0 / bitrate=5000 / ratetol=1.0 / qcomp=0.60 / qpmin=0:0:0 / qpmax=69:69:69 / qpstep=4 / ip_ratio=1.40 / pb_ratio=1.30 / aq=1:1.00 / aq-sensitivity=10.00 / aq-factor=1.00:1.00:1.00 / aq2=0 / aq3=0
Default : Да
Forced : Нет

Аудио
Идентификатор : 2
Формат : AC-3
Формат/Информация : Audio Coding 3
Расширение режима : CM (complete main)
Параметр Endianness формата : Big
Идентификатор кодека : A_AC3
Продолжительность : 58 м. 20 с.
Вид битрейта : Постоянный
Битрейт : 384 Кбит/сек
Каналы : 2 канала
Расположение каналов : Front: L R
Частота : 48,0 КГц
Частота кадров : 31,250 кадров/сек (1536 spf)
Метод сжатия : С потерями
Размер потока : 160 Мбайт (7%)
Default : Да
Forced : Нет

pb.wtf



Скачать Чи через торрент https://i106.fastpic.ru/big/2019/0616/85/7533e2775745d0e09bb496dab12e2885.jpg Скачать фильм Чи через торрент бесплантно в хорошем качестве Описание: Герои сериала — жители бедных южных районов Чикаго со сложной криминогенной обстановкой. Афроамериканцы, живущие здесь, вынуждены ... 7 10 3
Торрент: Зарегистрирован [2019-06-16 14:29] · скачан: 4 раз
Статус: √ проверено
Размер: 22.38 GB
Как cкачать? Как скачать Чи через торрент | qTorrent

% Раздел Тема Автор DL S | L
Зарубежные сериалы [ 67.29 GB ] Чи / The Chi / Сезон: 2 / Серии: 1-10 из 10 [2019 WEBRip 1080p] [MVO] killermax2013 Скачать
1 | 0
Зарубежные сериалы [ 6.02 GB ] Чи / The Chi / Сезон: 2 / Серии: 1-10 из 10 [2019 WEB-DLRip-AVC] [MVO] killermax2013 Скачать
1 | 0

28-11-2019 20:33  

Отключить всю рекламу на сайте

    Дорогой пользователь! Огромная просьба, поблагодарите релизера, оцените раздачу и оставьте свои комментарий, если Вы скачали Чи через торрент бесплатно! Внесите свою лепту в развитие PiratBit!
    Комментировать посты могут только пользователи прошедшие не сложную регистрацию
    Показать сообщения:    

    Чи через торрент
    Скачать бесплатно Чи
    Чи скачать торрент
    Чи смотреть онлайн
    Cкачать фильм Чи бесплатно
    Чи скачать торрент в хорошем качестве
    Чи смотреть онлайн бесплатно в хорошем качестве


    Вы не можете начинать темы
    Вы не можете отвечать на сообщения
    Вы не можете редактировать свои сообщения
    Вы не можете удалять свои сообщения
    Вы не можете голосовать в опросах
    Вы не можете прикреплять файлы к сообщениям
    Вы можете скачивать файлы