2 сезон

iTunes

1 сезон

1

iTunes

iTunes

iTunes

1 сезон

RePack

30

ИГРА 18+

pack

ВАЖНО

!!Акция!!

Alien_RageХит недели

RePack

MK11
pack

Забери бонус

RePack

jed

!!Акция!!

Alien_Rage

RePack

fifa19

RePack

Assassins Creed: Odyssey

RePack

NEED FOR SPEED™ PAYBACK

4 сезон

9 сезон

Бесстыжие 9 сезон

Все сериалы

все сериалы на PB.wtf

RePack

FAR CRY 5
  

Да, возможно / Да, нет, наверное / Definitely, Maybe (Адам Брукс / Adam Brooks) [2008, США, комедия, мелодрама, драма, BDRip 720p] MVO + Sub rus + Original (Eng) pb.wtf

Да, возможно через торрент pb.wtf

Размер: 4.72 GB | Добавлен: 9 лет 9 мес. назад | Торрент скачан:29 раз
Скачать  

13-01-2011 12:34 Да, возможно Скачать торрент  

Да, возможно / Да, нет, наверное / Definitely, Maybe

Год выпуска: 2008
Страна: США
Жанр: драма, мелодрама, комедия
Продолжительность: 112 мин.
Перевод: Профессиональный (многоголосый, закадровый)

Режиссер: Адам Брукс
Продюссер: Тим Беван, Лиза Чейсин, Бобби Коэн
Сценарий: Адам Брукс


PG-13
-Детям до 13 лет просмотр не желателен
Мировой рейтинг IMDB 7.30 (35 833)



В ролях: Райан Рейнольдс, Эн Нгуйен, Мэттью Мэйсон, Рик Дёрби, Сакина Джэффри, Боб Вилтфонг, Райдер Чейсин, Фиона Лэйн, Дэна Эскелсон, Блейк Бенитез, Эбигейл Бреслин, Элизабет Бэнкс, Айла Фишер, Кевин Клайн, Рейчел Вайс...

Описание: Никогда не поздно вернуться назад… и, возможно, обрести счастье. Уилл Хэйс — нью-йоркский папаша, слегка за тридцать. Его развод в самом разгаре, когда десятилетняя дочь Майя начинает задавать отцу вопросы о его жизни до брака. Уилл рассказывает про свои взлеты и падения: соседка Эмили, лучшая подруга и родственная душа Эйприл, свободолюбивая Саммер… Три романа… три разбитых сердца. Майя складывает кусочки романтической головоломки, и ей открывается, что любовь не бывает простой… а Уилл понимает, что в делах сердечных никогда не поздно рискнуть еще раз.

Качество видео: BDRip 720p
Формат видео: MKV
Видео: 1280x544 (2.35:1), 23.976 frames/s, 4091 kbps, High@L3.1
Аудио #1: 48 kHz, AC3 Dolby Digital, 3/2 (L,C,R,l,r) + LFE ch, ~448 kbps Rus
Аудио #2:48 kHz, AC3 DTS, 3/2 (L,C,R,l,r) + LFE ch, 1510kbps Eng
Субтитры: Eng, Rus


Код:

Общее
UniqueID/String                  : 179772659922611834377977362552512265592 (0x873EF473D9412F988FFDA21E89C73D78)
Полное имя                       : D:\HD\Definitely.Maybe.2008.720p.BluRay.x264-SiNNERS.mkv
Формат                           : Matroska
Размер файла                     : 4,72 Гбайт
Продолжительность                : 1 ч. 51 м.
Общий поток                      : 6048 Кбит/сек
Дата кодирования                 : UTC 2011-01-13 08:40:35
Программа кодирования            : mkvmerge v3.4.0 ('Rapunzel') сборка от May 15 2010 09:38:20
Библиотека кодирования           : libebml v0.8.0 + libmatroska v0.9.0
Видео
Идентификатор                    : 1
Формат                           : AVC
Формат/Информация                : Advanced Video Codec
Профиль формата                  : High@L3.1
Параметр CABAC формата           : Да
Параметр ReFrames формата        : 5 кадры
Параметры GOP формата            : M=4, N=32
Идентификатор кодека             : V_MPEG4/ISO/AVC
Продолжительность                : 1 ч. 51 м.
Битрейт                          : 4091 Кбит/сек
Ширина                           : 1280 пикс.
Высота                           : 544 пикс.
Соотношение сторон               : 2,35:1
Частота кадров                   : 23,976 кадр/сек
Цветовое пространство            : YUV
Подвыборка цветности             : 4:2:0
Битовая глубина                  : 8 бит
Тип развёртки                    : Прогрессивная
Бит/(Пиксели*Кадры)              : 0.245
Размер потока                    : 3,10 Гбайт (66%)
Библиотека кодирования           : x264 core 112 r1867 22bfd31
Настройки программы              : cabac=1 / ref=5 / deblock=1:0:0 / analyse=0x3:0x113 / me=umh / subme=7 / psy=1 / psy_rd=1.00:0.00 / mixed_ref=1 / me_range=16 / chroma_me=1 / trellis=1 / 8x8dct=1 / cqm=0 / deadzone=21,11 / fast_pskip=0 / chroma_qp_offset=-2 / threads=6 / sliced_threads=0 / nr=0 / decimate=1 / interlaced=0 / constrained_intra=0 / bframes=3 / b_pyramid=2 / b_adapt=1 / b_bias=0 / direct=1 / weightb=1 / open_gop=0 / weightp=2 / keyint=250 / keyint_min=23 / scenecut=40 / intra_refresh=0 / rc_lookahead=40 / rc=2pass / mbtree=1 / bitrate=4091 / ratetol=1.0 / qcomp=0.60 / qpmin=0 / qpmax=51 / qpstep=4 / cplxblur=20.0 / qblur=0.5 / ip_ratio=1.40 / aq=1:1.00
Язык                             : English
Аудио #1
Идентификатор                    : 2
Формат                           : AC-3
Формат/Информация                : Audio Coding 3
Расширение режима                : CM (complete main)
Идентификатор кодека             : A_AC3
Продолжительность                : 1 ч. 51 м.
Вид битрейта                     : Постоянный
Битрейт                          : 448 Кбит/сек
Канал(ы)                         : 6 канала(ов)
Расположение каналов             : Front: L C R, Side: L R, LFE
Частота                          : 48,0 КГц
Битовая глубина                  : 16 бит
Метод сжатия                     : С потерями
Размер потока                    : 358 Мбайт (7%)
Заголовок                        : MVO
Язык                             : Russian
Аудио #2
Идентификатор                    : 3
Формат                           : DTS
Формат/Информация                : Digital Theater Systems
Идентификатор кодека             : A_DTS
Продолжительность                : 1 ч. 51 м.
Вид битрейта                     : Постоянный
Битрейт                          : 1510 Кбит/сек
Канал(ы)                         : 6 канала(ов)
Расположение каналов             : Front: L C R, Side: L R, LFE
Частота                          : 48,0 КГц
Битовая глубина                  : 24 бит
Метод сжатия                     : С потерями
Размер потока                    : 1,18 Гбайт (25%)
Язык                             : English
Текст #1
Идентификатор                    : 4
Формат                           : UTF-8
Идентификатор кодека             : S_TEXT/UTF8
Идентификатор кодека/Информация  : UTF-8 Plain Text
Язык                             : English
Текст #2
Идентификатор                    : 5
Формат                           : UTF-8
Идентификатор кодека             : S_TEXT/UTF8
Идентификатор кодека/Информация  : UTF-8 Plain Text
Язык                             : Russian

скриншот   скриншот   скриншот   скриншот   скриншот  

скриншот   скриншот   скриншот   скриншот  
pb.wtf



Скачать Да, возможно через торрент http://linkme.ufanet.ru/images/fa1092e560e0cc911bc9b8116bcd0951.png Скачать фильм Да, возможно через торрент бесплантно в хорошем качестве Описание: Никогда не поздно вернуться назад… и, возможно, обрести счастье. Уилл Хэйс — нью-йоркский папаша, слегка за тридцать. Его развод ... 10 10 2
Info! Золотая раздача, скачанное не засчитывается.
Торрент: Зарегистрирован [2011-01-13 12:34] · скачан: 29 раз
Статус: √ проверено
Размер: 4.72 GB
Как cкачать? Как скачать Да, возможно через торрент | qTorrent

28-11-2019 20:33  

Отключить всю рекламу на сайте

    Дорогой пользователь! Огромная просьба, поблагодарите релизера, оцените раздачу и оставьте свои комментарий, если Вы скачали Да, возможно через торрент бесплатно! Внесите свою лепту в развитие PiratBit!
    Комментировать посты могут только пользователи прошедшие не сложную регистрацию
    Показать сообщения:    

    Да, возможно через торрент
    Скачать бесплатно Да, возможно
    Да, возможно скачать торрент
    Да, возможно смотреть онлайн
    Cкачать фильм Да, возможно бесплатно
    Да, возможно скачать торрент в хорошем качестве
    Да, возможно смотреть онлайн бесплатно в хорошем качестве


    Вы не можете начинать темы
    Вы не можете отвечать на сообщения
    Вы не можете редактировать свои сообщения
    Вы не можете удалять свои сообщения
    Вы не можете голосовать в опросах
    Вы не можете прикреплять файлы к сообщениям
    Вы можете скачивать файлы