Ссылка на приватное зеркало нашего сайта всего за 1$. Внимание количество ограничено!!!

2 сезон

iTunes

1 сезон

1

2 сезон

2 сезон

iTunes

1 сезон

RePack

30

Новинка

ВАЖНО

ИГРА 18+

pack

RePack

MK11
pack

Забери бонус

RePack

jed

!!Акция!!

Alien_Rage

RePack

fifa19

RePack

Assassins Creed: Odyssey

RePack

NEED FOR SPEED™ PAYBACK

4 сезон

9 сезон

Бесстыжие 9 сезон

Все сериалы

все сериалы на PB.wtf

RePack

FAR CRY 5
  

На грани / The Brink / Сезон: 1 / Серии: 1-10 из 10 (Джон Полл, Джей Роуч, Скотт Уинант) [2015, комедия, HDTVRip 720p] MVO [Amedia] pb.wtf

На грани через торрент pb.wtf

Размер: 10 GB | Добавлен: 1 год 5 мес. назад | Торрент скачан:48 раз
Скачать  

16-06-2019 17:27 На грани Скачать торрент  

На грани | The Brink • Год выпуска: 2015
• Страна: США
• Жанр: комедия
• Продолжительность: ~ 00:30:00
• Перевод: Профессиональный (многоголосый закадровый) | Amedia
• Субтитры: Русские (Forced, Full), английские

• Режиссёр: Джон Полл, Джей Роуч, Скотт Уинант

• В ролях:

Тим Роббинс, Джек Блэк, Маус Джексон, Эрик Ладин, Эсай Моралес, Пабло Шрайбер, Икбал Теба, Мелани Каннокада, Марк Пэрриш, Бернард Уайт

• Описание:

«На грани» (The Brink) – актуальная, как никогда, политическая сатира с Джэком Блэком и Тимом Робинсом. Угроза Третьей Мировой Войны нависла над планетой со стороны Пакистана. Военные готовы решить вопрос силой, но политики настаивают на мирном урегулировании конфликта. Ядерная война или дружеские объятия? Кто бы ни победил в этом противостоянии, главное – не терять чувства юмора. Сериал-передышка для всех фанатов «Родины» и «Карточного домика».



• Качество: HDTVRip 720p (DON by ]Pro_Rock_)
• Формат: MKV

• Видео: H.264, 1280x718 (16:9), 23,976 fps, ~4400 kbps,
• Аудио 1: AC3, 48.0 KHz, 6 ch, 384 Kbps, CBR - Rus
• Аудио 2: AC3, 48.0 KHz, 6 ch, 384 Kbps, CBR - Eng
видеоряд от DON
работа со звуком, синхронизация и создание форс. субтитров - qqss44
запись звука BS666
форсированные субтитры - на надписи и урду
рус. субтитры 1 от Амедиа
рус. субтитры 2 от JossTheBoss (содержат ненормативную лексику)
Общее
Уникальный идентификатор : 215845723586676120890019579787062695732 (0xA2625FCE58C23F539E5CE2F7AD4E5734)
Формат : Matroska
Версия формата : Version 2
Размер файла : 1,05 Гбайт
Продолжительность : 28 м.
Общий поток : 5292 Кбит/сек
Дата кодирования : UTC 2015-07-03 05:23:03
Программа кодирования : mkvmerge v7.9.0 ('Birds') 64bit
Библиотека кодирования : libebml v1.3.1 + libmatroska v1.4.2
DURATION : 00:28:23.104000000
NUMBER_OF_FRAMES : 53222
NUMBER_OF_BYTES : 81748992
_STATISTICS_WRITING_APP : mkvmerge v7.9.0 ('Birds') 64bit
_STATISTICS_WRITING_DATE_UTC : 2015-07-03 05:23:03
_STATISTICS_TAGS : BPS DURATION NUMBER_OF_FRAMES NUMBER_OF_BYTES

Видео
Идентификатор : 1
Формат : AVC
Формат/Информация : Advanced Video Codec
Профиль формата : High@L4.1
Параметр CABAC формата : Да
Параметр ReFrames формата : 9 кадров
Идентификатор кодека : V_MPEG4/ISO/AVC
Продолжительность : 28 м.
Битрейт : 4418 Кбит/сек
Ширина : 1280 пикселей
Высота : 718 пикселей
Соотношение сторон : 16:9
Режим частоты кадров : Постоянный
Частота кадров : 23,976 кадра/сек
Цветовое пространство : YUV
Субдискретизация насыщенности : 4:2:0
Битовая глубина : 8 бит
Тип развёртки : Прогрессивная
Бит/(Пиксели*Кадры) : 0.201
Размер потока : 897 Мбайт (83%)
Библиотека кодирования : x264 core 146 r2538kMod 121396c
Настройки программы : cabac=1 / ref=9 / deblock=1:-3:-3 / analyse=0x3:0x113 / me=umh / subme=11 / psy=1 / fade_compensate=0.00 / psy_rd=1.00:0.05 / mixed_ref=1 / me_range=32 / chroma_me=1 / trellis=2 / 8x8dct=1 / cqm=0 / deadzone=21,11 / fast_pskip=0 / chroma_qp_offset=-4 / threads=12 / lookahead_threads=2 / sliced_threads=0 / nr=0 / decimate=1 / interlaced=0 / bluray_compat=0 / constrained_intra=0 / fgo=0 / bframes=9 / b_pyramid=2 / b_adapt=2 / b_bias=0 / direct=3 / weightb=1 / open_gop=0 / weightp=2 / keyint=230 / keyint_min=23 / scenecut=40 / intra_refresh=0 / rc_lookahead=40 / rc=crf / mbtree=0 / crf=18.0000 / qcomp=0.65 / qpmin=0 / qpmax=69 / qpstep=4 / vbv_maxrate=50000 / vbv_bufsize=62500 / crf_max=0.0 / nal_hrd=none / filler=0 / ip_ratio=1.40 / pb_ratio=1.30 / aq=3:0.85
Язык : English
Default : Да
Forced : Нет
DURATION : 00:28:23.118000000
NUMBER_OF_FRAMES : 40834
NUMBER_OF_BYTES : 962470589
_STATISTICS_WRITING_APP : mkvmerge v7.9.0 ('Birds') 64bit
_STATISTICS_WRITING_DATE_UTC : 2015-07-03 05:23:03
_STATISTICS_TAGS : BPS DURATION NUMBER_OF_FRAMES NUMBER_OF_BYTES

Аудио #1
Идентификатор : 2
Формат : AC-3
Формат/Информация : Audio Coding 3
Расширение режима : CM (complete main)
Параметр Endianness формата : Big
Идентификатор кодека : A_AC3
Продолжительность : 28 м.
Вид битрейта : Постоянный
Битрейт : 384 Кбит/сек
Каналы : 6 каналов
Расположение каналов : Front: L C R, Side: L R, LFE
Частота : 48,0 КГц
Метод сжатия : С потерями
Размер потока : 78,0 Мбайт (7%)
Язык : Russian
Default : Да
Forced : Нет

Аудио #2
Идентификатор : 3
Формат : AC-3
Формат/Информация : Audio Coding 3
Расширение режима : CM (complete main)
Параметр Endianness формата : Big
Идентификатор кодека : A_AC3
Продолжительность : 28 м.
Вид битрейта : Постоянный
Битрейт : 384 Кбит/сек
Каналы : 6 каналов
Расположение каналов : Front: L C R, Side: L R, LFE
Частота : 48,0 КГц
Метод сжатия : С потерями
Размер потока : 78,0 Мбайт (7%)
Язык : English
Default : Нет
Forced : Нет

Текст #1
Идентификатор : 4
Формат : UTF-8
Идентификатор кодека : S_TEXT/UTF8
Идентификатор кодека/Информация : UTF-8 Plain Text
Заголовок : FORCED
Язык : Russian
Default : Да
Forced : Нет

Текст #2
Идентификатор : 5
Формат : UTF-8
Идентификатор кодека : S_TEXT/UTF8
Идентификатор кодека/Информация : UTF-8 Plain Text
Заголовок : Amedia
Язык : Russian
Default : Нет
Forced : Нет

Текст #3
Идентификатор : 6
Формат : UTF-8
Идентификатор кодека : S_TEXT/UTF8
Идентификатор кодека/Информация : UTF-8 Plain Text
Заголовок : JossTheBoss
Язык : Russian
Default : Нет
Forced : Нет

Текст #4
Идентификатор : 7
Формат : UTF-8
Идентификатор кодека : S_TEXT/UTF8
Идентификатор кодека/Информация : UTF-8 Plain Text
Язык : English
Default : Нет
Forced : Нет
скриншот  скриншот  скриншот  скриншот  
Когда раздача ведётся путём добавления новых серий, при каждом добавлении создётся новый торрент. Чтобы начать докачку новой серии, пользователям необходимо сделать следующее:
(1) остановить скачивание,
(2) удалить старый торрент у себя из клиента (старые серии удалять не надо),
(3) скачать новый торрент и запустить его у себя в клиенте вместо старого, при этом указать клиенту путь в старую папку, куда и должно происходить скачивание новых серий.
Ваш клиент при этом должен произвести хеширование (проверку) старой папки (если не производит сам - помогите ему сделать это), и будет докачивать только те серии, которых у вас ещё нет. Старые серии при этом не удаляются, а продолжают раздаваться!
Eсли вы уже удалили старые серии, то предотвратить повторную закачку старых серий можно, отжав галочку в соответсвующих местах при запуске нового торрента. По возможности, желательно не удалять старые серии как можно дольше, чтобы релизёр не столько продолжал раздавать старые серии, а смог сконцентрироваться на новых.
pb.wtf



Скачать На грани через торрент http://i72.fastpic.ru/big/2015/0622/fb/adfabd897725040111fd0473b4bf6afb.png Скачать фильм На грани через торрент бесплантно в хорошем качестве Описание: «На грани» (The Brink) – актуальная, как никогда, политическая сатира с Джэком Блэком и Тимом Робинсом. Угроза Третьей Мировой ... 10 10 3
Торрент: Зарегистрирован [2019-06-16 17:27] · скачан: 48 раз
Статус: √ проверено
Размер: 10 GB
Как cкачать? Как скачать На грани через торрент | qTorrent

% Раздел Тема Автор DL S | L
Зарубежные сериалы [ 10.06 GB ] На грани / The Brink / Сезон: 1 / Серии: 1-10 из 10 [2015 HDTVRip 720p] DVO [Кубик в Кубе] bober100 Скачать
1 | 0
Зарубежные сериалы [ 3.35 GB ] На грани / The Brink / Сезон: 1 / Серии: 1-10 из 10 [2015 HDTVRip / NewStudio] Ворон Скачать
1 | 0

28-11-2019 20:33  

Отключить всю рекламу на сайте

16-06-2019 19:35 На грани Скачать торрент  

сериал супер.жаль продолжение отменилиpb.wtf



16-06-2019 19:39 На грани Скачать торрент  

сорян.может я ошибаюсь,но этот сериал давно в сетиpb.wtf



    Дорогой пользователь! Огромная просьба, поблагодарите релизера, оцените раздачу и оставьте свои комментарий, если Вы скачали На грани через торрент бесплатно! Внесите свою лепту в развитие PiratBit!
    Комментировать посты могут только пользователи прошедшие не сложную регистрацию
    Показать сообщения:    

    На грани через торрент
    Скачать бесплатно На грани
    На грани скачать торрент
    На грани смотреть онлайн
    Cкачать фильм На грани бесплатно
    На грани скачать торрент в хорошем качестве
    На грани смотреть онлайн бесплатно в хорошем качестве


    Вы не можете начинать темы
    Вы не можете отвечать на сообщения
    Вы не можете редактировать свои сообщения
    Вы не можете удалять свои сообщения
    Вы не можете голосовать в опросах
    Вы не можете прикреплять файлы к сообщениям
    Вы можете скачивать файлы