Ссылка на приватное зеркало нашего сайта всего за 1$. Внимание количество ограничено!!!

2 сезон

iTunes

1 сезон

1

2 сезон

2 сезон

iTunes

1 сезон

RePack

30

Ultimate

ВАЖНО

ИГРА 18+

pack

RePack

MK11
pack

Забери бонус

RePack

jed

!!Акция!!

Alien_Rage

RePack

fifa19

RePack

Assassins Creed: Odyssey

RePack

NEED FOR SPEED™ PAYBACK

4 сезон

9 сезон

Бесстыжие 9 сезон

Все сериалы

все сериалы на PB.wtf

RePack

FAR CRY 5
  

Поза / Pose / Сезон: 2 / Серии: 1-10 из 10 (Гвинет Хердер-Пэйтон, Тина Мэбри, Джанет Мокк) [2019, Драма, WEB-DL 1080p] MVO [TVShows] pb.wtf

Поза через торрент pb.wtf

Размер: 33.48 GB | Добавлен: 1 год 3 мес. назад | Торрент скачан:10 раз
Скачать  

16-06-2019 18:27 Поза Скачать торрент  

Поза / Pose Год выпуска: 2019
Страна: США
Жанр: Драма
Продолжительность: 01:00:00
Перевод: Профессиональный (многоголосый закадровый) | TVShows
Субтитры: английские

Режиссёр: Гвинет Хердер-Пэйтон, Тина Мэбри, Джанет Мокк

rating

В ролях: Анджелика Росс, Эван Питерс, ЭмДжей Родригес, Доминик Джексон, Билли Портер, Индия Мур, Райан Джамал Суэйн, Хэйли Сахар, Энджел Куриэль, Диллон Бернсайд

Описание: Действие сериала разворачивается в Нью-Йорке 80-х годов. Главные герои — артисты-транссексуалы, живущие обычной жизнью и мечтающие о любви, признании и успехе.

Качество: WEB-DL 1080p
Контейнер: MKV

Видео: MPEG-4 AVC, 1920x1080, 23.976 fps, ~ 8800 Kbps
Аудио: Русский (AC3, 6 ch, 384 Кбит/с)
Аудио 2: английский (AC3, 6 ch, 640 Кбит/с)


Реклама: Отсутствует
Видео
Идентификатор : 1
Формат : AVC
Формат/Информация : Advanced Video Codec
Профиль формата : High@L4
Настройки формата : CABAC / 4 Ref Frames
Параметр CABAC формата : Да
Параметр RefFrames формата : 4 кадра
Идентификатор кодека : V_MPEG4/ISO/AVC
Продолжительность : 1 ч. 1 м.
Вид битрейта : Постоянный
Битрейт : 8722 Кбит/сек
Номинальный битрейт : 10000 Кбит/сек
Ширина : 1920 пикселей
Высота : 1080 пикселей
Соотношение сторон : 16:9
Режим частоты кадров : Постоянный
Частота кадров : 23,976 (24000/1001) кадра/сек
Цветовое пространство : YUV
Субдискретизация насыщенности : 4:2:0
Битовая глубина : 8 бит
Тип развёртки : Прогрессивная
Бит/(Пиксели*Кадры) : 0.175
Размер потока : 3,72 Гбайт (89%)
Default : Да
Forced : Нет
Цветовой диапазон : Limited
Основные цвета : BT.709
Характеристики трансфера : BT.709
Коэффициенты матрицы : BT.709

Аудио #1
Идентификатор : 2
Формат : AC-3
Формат/Информация : Audio Coding 3
Коммерческое название : Dolby Digital
Идентификатор кодека : A_AC3
Продолжительность : 1 ч. 1 м.
Вид битрейта : Постоянный
Битрейт : 384 Кбит/сек
Каналы : 6 каналов
ChannelLayout : L R C LFE Ls Rs
Частота : 48,0 КГц
Частота кадров : 31,250 кадров/сек (1536 SPF)
Битовая глубина : 16 бит
Метод сжатия : С потерями
Размер потока : 168 Мбайт (4%)
Язык : Russian
ServiceKind/String : Complete Main
Default : Да
Forced : Нет

Аудио #2
Идентификатор : 3
Формат : E-AC-3
Формат/Информация : Enhanced AC-3
Коммерческое название : Dolby Digital Plus
Идентификатор кодека : A_EAC3
Продолжительность : 1 ч. 1 м.
Вид битрейта : Постоянный
Битрейт : 640 Кбит/сек
Каналы : 6 каналов
ChannelLayout : L R C LFE Ls Rs
Частота : 48,0 КГц
Частота кадров : 31,250 кадров/сек (1536 SPF)
Метод сжатия : С потерями
Размер потока : 280 Мбайт (7%)
Язык : English
ServiceKind/String : Complete Main
Default : Нет
Forced : Нет
Внимание! Раздача ведётся путём добавления новых серий; при каждом добавлении создаётся новый торрент.
Чтобы начать докачку новой серии, пользователям необходимо сделать следующее:
1. Остановить скачивание.
2. Удалить старый торрент у себя из клиента (старые серии удалять не надо).
3. Скачать новый торрент и запустить его у себя в клиенте вместо старого, при этом указать клиенту путь в старую папку куда и должно происходить скачивание новых серий.
Ваш клиент при этом должен произвести хеширование (проверку) старой папки (если не производит сам - помогите ему сделать это), и будет докачивать только те серии которых у вас ещё нет. Старые серии при этом не удаляются, а продолжают раздаваться!
Eсли вы уже удалили старые серии, то предотвратить повторную закачку старых серий можно, отжав галочку в соответствующих местах при запуске нового торрента.
скриншот  скриншот  скриншот  скриншот  
pb.wtf



Скачать Поза через торрент http://picplus.ru/img/1906/13/80a6c870.jpg Скачать фильм Поза через торрент бесплантно в хорошем качестве Описание: Действие сериала разворачивается в Нью-Йорке 80-х годов. Главные герои — артисты-транссексуалы, живущие обычной жизнью и ... 7.8 10 4
Торрент: Зарегистрирован [2019-08-24 12:47] · скачан: 10 раз
Статус: √ проверено
Размер: 33.48 GB
Как cкачать? Как скачать Поза через торрент | qTorrent

28-11-2019 20:33  

Отключить всю рекламу на сайте

    Дорогой пользователь! Огромная просьба, поблагодарите релизера, оцените раздачу и оставьте свои комментарий, если Вы скачали Поза через торрент бесплатно! Внесите свою лепту в развитие PiratBit!
    Комментировать посты могут только пользователи прошедшие не сложную регистрацию
    Показать сообщения:    

    Поза через торрент
    Скачать бесплатно Поза
    Поза скачать торрент
    Поза смотреть онлайн
    Cкачать фильм Поза бесплатно
    Поза скачать торрент в хорошем качестве
    Поза смотреть онлайн бесплатно в хорошем качестве


    Вы не можете начинать темы
    Вы не можете отвечать на сообщения
    Вы не можете редактировать свои сообщения
    Вы не можете удалять свои сообщения
    Вы не можете голосовать в опросах
    Вы не можете прикреплять файлы к сообщениям
    Вы можете скачивать файлы