Ссылка на приватное зеркало нашего сайта всего за 1$. Внимание количество ограничено!!!

2 сезон

iTunes

1 сезон

1

2 сезон

2 сезон

iTunes

1 сезон

RePack

30

Ultimate

ВАЖНО

ИГРА 18+

pack

RePack

MK11
pack

Забери бонус

RePack

jed

!!Акция!!

Alien_Rage

RePack

fifa19

RePack

Assassins Creed: Odyssey

RePack

NEED FOR SPEED™ PAYBACK

4 сезон

9 сезон

Бесстыжие 9 сезон

Все сериалы

все сериалы на PB.wtf

RePack

FAR CRY 5
  

Священная земля / Hallowed Ground (Майлз Долеак) [2019, Ужасы, WEB-DL 1080p] MVO [СВ Студия] pb.wtf

Священная земля через торрент pb.wtf

Размер: 8.49 GB | Добавлен: 1 год 5 мес. назад | Торрент скачан:28 раз
Скачать  

17-06-2019 04:14 Священная земля Скачать торрент  

Священная земля / Hallowed Ground Год выпуска: 2019
Страна: США
Жанр: Ужасы
Продолжительность: 01:57:46
Перевод: Профессиональный (многоголосый) | СВ Студия
Субтитры: английские

Режиссер: Майлз Долеак

rating


В ролях:

Ричи Монтгомери, Шерри Икин, Майлз Долеак, Линдсей Энн Уильямс, Джереми Сэнд, Элла Клер Беннетт, Майкл Рэндолл, Крик Уилсон, Коттон Янси, Уэсли О'Мэри

Описание:

Семейная пара, пытаясь восстановить отношения после измены, отправляется в домик в глухом лесу, чтобы побыть только вдвоем. Но неожиданно они сталкиваются с кровной враждой между коренными американцами и соседним кланом, который одержим защитой своих земель и наказанием каждого, кто нарушит их границы.

Качество: WEB-DL 1080p
Формат: MKV

Видео: AVC, 1920х816 (16:9), 23,976 fps, 9126 kb/s
Аудио#1: AC-3, 48.0 kHz, 6 ch, 640 kb/s (Russian)
Аудио#2: AC-3, 48.0 kHz, 6 ch, 640 kb/s (English)
скриншот  скриншот  скриншот  скриншот  

General
Unique ID : 217120503795776769637453846953831260976 (0xA357E352A97C9944BE1D65C7E3F56330)
Complete name : D:Hallowed.Ground.2019.1080p.AMZN.WEB-DL.DDP5.1.H.264.mkv
Format : Matroska
Format version : Version 4 / Version 2
File size : 8.49 GiB
Duration : 1 h 56 min
Overall bit rate : 10.4 Mb/s
Encoded date : UTC 2019-06-15 12:23:33
Writing application : mkvmerge v7.5.0 ('Glass Culture') 32bit built on Jan 4 2015 16:37:25
Writing library : libebml v1.3.1 + libmatroska v1.4.2

Video
ID : 1
Format : AVC
Format/Info : Advanced Video Codec
Format profile : High@L4
Format settings : CABAC / 4 Ref Frames
Format settings, CABAC : Yes
Format settings, ReFrames : 4 frames
Codec ID : V_MPEG4/ISO/AVC
Duration : 1 h 56 min
Bit rate mode : Constant
Bit rate : 9 126 kb/s
Nominal bit rate : 10 000 kb/s
Width : 1 920 pixels
Height : 816 pixels
Display aspect ratio : 2.35:1
Frame rate mode : Constant
Frame rate : 23.976 (24000/1001) FPS
Color space : YUV
Chroma subsampling : 4:2:0
Bit depth : 8 bits
Scan type : Progressive
Bits/(Pixel*Frame) : 0.243
Stream size : 7.45 GiB (88%)
Default : Yes
Forced : No
Color range : Limited
Color primaries : BT.709
Transfer characteristics : BT.709
Matrix coefficients : BT.709

Audio #1
ID : 2
Format : AC-3
Format/Info : Audio Coding 3
Commercial name : Dolby Digital
Codec ID : A_AC3
Duration : 1 h 56 min
Bit rate mode : Constant
Bit rate : 640 kb/s
Channel(s) : 6 channels
Channel layout : L R C LFE Ls Rs
Sampling rate : 48.0 kHz
Frame rate : 31.250 FPS (1536 SPF)
Bit depth : 16 bits
Compression mode : Lossy
Stream size : 535 MiB (6%)
Title : СВ студия
Language : Russian
Service kind : Complete Main
Default : Yes
Forced : No

Audio #2
ID : 3
Format : E-AC-3
Format/Info : Enhanced AC-3
Commercial name : Dolby Digital Plus
Codec ID : A_EAC3
Duration : 1 h 56 min
Bit rate mode : Constant
Bit rate : 640 kb/s
Channel(s) : 6 channels
Channel layout : L R C LFE Ls Rs
Sampling rate : 48.0 kHz
Frame rate : 31.250 FPS (1536 SPF)
Compression mode : Lossy
Stream size : 535 MiB (6%)
Language : English
Service kind : Complete Main
Default : No
Forced : No

Text #1
ID : 4
Format : UTF-8
Codec ID : S_TEXT/UTF8
Codec ID/Info : UTF-8 Plain Text
Duration : 1 h 56 min
Bit rate : 43 b/s
Count of elements : 1245
Stream size : 37.3 KiB (0%)
Language : English
Default : No
Forced : No

Text #2
ID : 5
Format : UTF-8
Codec ID : S_TEXT/UTF8
Codec ID/Info : UTF-8 Plain Text
Duration : 1 h 56 min
Bit rate : 47 b/s
Count of elements : 1412
Stream size : 40.6 KiB (0%)
Title : SDH
Language : English
Default : No
Forced : No

pb.wtf



Скачать Священная земля через торрент https://i110.fastpic.ru/big/2019/0615/89/dc5c5ac15a1d4e89159db7d29687c689.jpg Скачать фильм Священная земля через торрент бесплантно в хорошем качестве Описание: Семейная пара, пытаясь восстановить отношения после измены, отправляется в домик в глухом лесу, чтобы побыть только вдвоем. Но ... 10 10 6
Торрент: Зарегистрирован [2019-06-17 04:14] · скачан: 28 раз
Статус: √ проверено
Размер: 8.49 GB
Как cкачать? Как скачать Священная земля через торрент | qTorrent

% Раздел Тема Автор DL S | L
T Фильмы (WEB-DL 720p, 1080p) [ 4.37 GB ] Священная земля / Hallowed Ground [2019 WEB-DL 720p] MVO [СВ-Студия] - ExKinoRay Enigma2010 Скачать
2 | 0

28-11-2019 20:33  

Отключить всю рекламу на сайте

    Дорогой пользователь! Огромная просьба, поблагодарите релизера, оцените раздачу и оставьте свои комментарий, если Вы скачали Священная земля через торрент бесплатно! Внесите свою лепту в развитие PiratBit!
    Комментировать посты могут только пользователи прошедшие не сложную регистрацию
    Показать сообщения:    

    Священная земля через торрент
    Скачать бесплатно Священная земля
    Священная земля скачать торрент
    Священная земля смотреть онлайн
    Cкачать фильм Священная земля бесплатно
    Священная земля скачать торрент в хорошем качестве
    Священная земля смотреть онлайн бесплатно в хорошем качестве


    Вы не можете начинать темы
    Вы не можете отвечать на сообщения
    Вы не можете редактировать свои сообщения
    Вы не можете удалять свои сообщения
    Вы не можете голосовать в опросах
    Вы не можете прикреплять файлы к сообщениям
    Вы можете скачивать файлы