Ссылка на приватное зеркало нашего сайта всего за 1$. Внимание количество ограничено!!!

2 сезон

iTunes

1 сезон

1

2 сезон

2 сезон

iTunes

1 сезон

RePack

30

Ultimate

ВАЖНО

ИГРА 18+

pack

RePack

MK11
pack

Забери бонус

RePack

jed

!!Акция!!

Alien_Rage

RePack

fifa19

RePack

Assassins Creed: Odyssey

RePack

NEED FOR SPEED™ PAYBACK

4 сезон

9 сезон

Бесстыжие 9 сезон

Все сериалы

все сериалы на PB.wtf

RePack

FAR CRY 5
  

Дождь / The Rain / Сезон: 2 / Серии: 1-6 из 6 (Кеннет Кайнц, Наташа Артю) [2019, фантастика, триллер, драма, WEBRip 720p] MVO [TVShows] pb.wtf

Дождь через торрент pb.wtf

Размер: 6.3 GB | Добавлен: 1 год 5 мес. назад | Торрент скачан:48 раз
Скачать  

17-06-2019 12:36 Дождь Скачать торрент  

Дождь / The Rain
Год выпуска: 2019
Страна: Дания США
Жанр: фантастика, триллер, драма
Продолжительность: ~00:38:00
Перевод: Профессиональный (многоголосый) | TVShows
Субтитры: английские

Режиссер: Кеннет Кайнц, Наташа Артю

rating


В ролях:

Альба Аугуст, Лукас Тоннесен, Миккель Боэ Фёльсгор, Джессика Диннаж, Йоханнес Кунке, Лукас Лёккен, Сонни Линдберг, Натали Мадуэньо

Описание:

Шесть лет назад смертоносный вирус, содержащийся в каплях дождя, стёр с лица Земли почти всё человечество. Работник корпорации Appolo, зная о приближающейся катастрофе, успел спрятать своих детей в специальный бункер, наказал дочери оберегать младшего брата, а сам пошел спасать человечество. Через шесть лет у подростков заканчивается еда, поэтому сестра решает выйти на поверхность на разведку и вскоре отправиться на поиски так и не вернувшегося отца...

Качество: WEBRip 720p
Формат: MKV

Видео: 1280x720 (16:9), 25.000 fps, MPEG-4 AVC ~3 160 kbps avg
Аудио#1: 48.0 kHz, AC3 Dolby Digital, 3/2 (L,C,R,l,r) + LFE ch, ~384 kbps | RUS / MVO
Аудио#2: 48.0 kHz, Enhanced Audio Coding 3, 3/2 (L,C,R,l,r) + LFE ch, ~640 kbps | DAN
скриншот  скриншот  скриншот  

Общее
Уникальный идентификатор : 270840187428303892453253940618439439838 (0xCBC1EC36CC793D2EE2DC2FE2BC9435DE)
Полное имя : D:\The.Rain.S02.720p.TVShows\The.Rain.S02E01.720p.TVShows.mkv
Формат : Matroska
Версия формата : Version 4 / Version 2
Размер файла : 1,08 Гбайт
Продолжительность : 37 м. 38 с.
Режим общего битрейта : Переменный
Общий поток : 4093 Кбит/сек
Дата кодирования : UTC 2019-06-13 08:25:28
Программа кодирования : mkvmerge v33.1.0 ('Primrose') 64-bit
Библиотека кодирования : libebml v1.3.7 + libmatroska v1.5.0

Видео
Идентификатор : 1
Формат : AVC
Формат/Информация : Advanced Video Codec
Профиль формата : Main@L3.1
Параметр CABAC формата : Да
Параметр RefFrames формата : 3 кадра
Идентификатор кодека : V_MPEG4/ISO/AVC
Продолжительность : 37 м. 38 с.
Вид битрейта : Переменный
Битрейт : 3158 Кбит/сек
Номинальный битрейт : 3160 Кбит/сек
Максимальный битрейт : 4740 Кбит/сек
Ширина : 1280 пикселей
Высота : 720 пикселей
Соотношение сторон : 16:9
Режим частоты кадров : Постоянный
Частота кадров : 25,000 кадров/сек
Цветовое пространство : YUV
Субдискретизация насыщенности : 4:2:0
Битовая глубина : 8 бит
Тип развёртки : Прогрессивная
Бит/(Пиксели*Кадры) : 0.130
Размер потока : 804 Мбайт (73%)
Библиотека кодирования : x264 core 148 r2715 7e75228
Настройки программы : cabac=1 / ref=3 / deblock=1:0:0 / analyse=0x1:0x111 / me=umh / subme=10 / psy=1 / psy_rd=1.00:0.00 / mixed_ref=1 / me_range=24 / chroma_me=1 / trellis=2 / 8x8dct=0 / cqm=0 / deadzone=21,11 / fast_pskip=1 / chroma_qp_offset=-2 / threads=8 / lookahead_threads=1 / sliced_threads=0 / nr=0 / decimate=1 / interlaced=0 / bluray_compat=0 / stitchable=1 / constrained_intra=0 / bframes=2 / b_pyramid=0 / b_adapt=2 / b_bias=0 / direct=3 / weightb=1 / open_gop=0 / weightp=2 / keyint=50 / keyint_min=26 / scenecut=0 / intra_refresh=0 / rc_lookahead=50 / rc=2pass / mbtree=1 / bitrate=3160 / ratetol=1.0 / qcomp=0.50 / qpmin=6 / qpmax=51 / qpstep=4 / cplxblur=20.0 / qblur=0.5 / vbv_maxrate=4740 / vbv_bufsize=6320 / nal_hrd=vbr / filler=0 / ip_ratio=1.40 / aq=1:1.00
Default : Да
Forced : Нет

Аудио #1
Идентификатор : 2
Формат : AC-3
Формат/Информация : Audio Coding 3
Расширение режима : CM (complete main)
Параметр Endianness формата : Big
Идентификатор кодека : A_AC3
Продолжительность : 37 м. 38 с.
Вид битрейта : Постоянный
Битрейт : 384 Кбит/сек
Каналы : 6 каналов
Расположение каналов : Front: L C R, Side: L R, LFE
Частота : 48,0 КГц
Частота кадров : 31,250 кадров/сек (1536 spf)
Метод сжатия : С потерями
Размер потока : 103 Мбайт (9%)
Заголовок : TVShows
Язык : Russian
Default : Да
Forced : Да

Аудио #2
Идентификатор : 3
Формат : E-AC-3
Формат/Информация : Audio Coding 3
Параметр Endianness формата : Big
Идентификатор кодека : A_EAC3
Продолжительность : 37 м. 38 с.
Вид битрейта : Постоянный
Битрейт : 640 Кбит/сек
Каналы : 6 каналов
Расположение каналов : Front: L C R, Side: L R, LFE
Частота : 48,0 КГц
Частота кадров : 187,500 кадров/сек (256 spf)
Метод сжатия : С потерями
Размер потока : 172 Мбайт (16%)
Заголовок : Original
Язык : Danish
Default : Нет
Forced : Нет

Текст
Идентификатор : 4
Формат : UTF-8
Идентификатор кодека : S_TEXT/UTF8
Идентификатор кодека/Информация : UTF-8 Plain Text
Заголовок : English
Язык : English
Default : Нет
Forced : Нет

pb.wtf



Скачать Дождь через торрент http://d.radikal.ru/d40/1905/ab/f7bc35bef88f.jpg Скачать фильм Дождь через торрент бесплантно в хорошем качестве Описание: Шесть лет назад смертоносный вирус, содержащийся в каплях дождя, стёр с лица Земли почти всё человечество. Работник корпорации ... 10 10 4
Торрент: Зарегистрирован [2019-06-17 12:36] · скачан: 48 раз
Статус: √ проверено
Размер: 6.3 GB
Как cкачать? Как скачать Дождь через торрент | qTorrent

% Раздел Тема Автор DL S | L
Зарубежные сериалы [ 10.08 GB ] Дождь / The Rain / Сезон: 2 / Серии: 1-6 из 6 [2019 WEBRip 1080p] MVO [TVShows] bober100 Скачать
1 | 0
Зарубежные сериалы [ 10.08 GB ] Дождь / The Rain / Сезон: 2 / Серии: 1-6 из 6 [2019 WEB-DL 1080p] [MVO] killermax2013 Скачать
1 | 0
Зарубежные сериалы [ 5.06 GB ] Дождь / The Rain / Сезон: 2 / Серии: 1-6 из 6 [2019 WEB-DLRip] [MVO] killermax2013 Скачать
1 | 0
Зарубежные сериалы [ 5.83 GB ] Дождь / The Rain / Сезон: 2 / Серии: 1-6 из 6 [2019 WEB-DL 720p] [MVO] killermax2013 Скачать
1 | 0

28-11-2019 20:33  

Отключить всю рекламу на сайте

    Дорогой пользователь! Огромная просьба, поблагодарите релизера, оцените раздачу и оставьте свои комментарий, если Вы скачали Дождь через торрент бесплатно! Внесите свою лепту в развитие PiratBit!
    Комментировать посты могут только пользователи прошедшие не сложную регистрацию
    Показать сообщения:    

    Дождь через торрент
    Скачать бесплатно Дождь
    Дождь скачать торрент
    Дождь смотреть онлайн
    Cкачать фильм Дождь бесплатно
    Дождь скачать торрент в хорошем качестве
    Дождь смотреть онлайн бесплатно в хорошем качестве


    Вы не можете начинать темы
    Вы не можете отвечать на сообщения
    Вы не можете редактировать свои сообщения
    Вы не можете удалять свои сообщения
    Вы не можете голосовать в опросах
    Вы не можете прикреплять файлы к сообщениям
    Вы можете скачивать файлы