2 сезон

iTunes

MVO

1

2 сезон

iTunes

iTunes

1 сезон

RePack

30

Новинка

ВАЖНО

ИГРА 18+

pack

RePack

MK11
pack

Легкие деньги

RePack

jed

RePack

fifa19

RePack

RDR2

RePack

NEED FOR SPEED™ PAYBACK

4 сезон

9 сезон

Бесстыжие 9 сезон

Все сериалы

все сериалы на PB.wtf

RePack

FAR CRY 5

Anonymous, добрый день, мы не успеваем собрать деньги на оплату серверов за декабрь и январь, помогите нам пожалуйста в это трудное время. В качестве благодарности мы отключим Вам всю рекламу на сайте (укажите свой ник в строку Ваше имя)!

×
  
Magnet ссылка

Потрошители / Repo Men (Мигель Сапочник) [2010 г., Фантастика, боевик, триллер, криминал, BDRip 720p / 60 FPS, Дубляж] (Unrated) 60fps от R.G. HD-Films pb.wtf

Потрошители через торрент pb.wtf

Раздают: 1 [ 0 KB/s ]
Размер: 3.48 GB | Добавлен: 1 год 6 мес. назад | Торрент скачан:224 раза
Скачать  

17-06-2019 14:50 Потрошители Скачать торрент  

Потрошители / Repo Men
Год выпуска: 2010
Страна: США
Жанр: Фантастика, боевик, триллер, криминал
Продолжительность: 01:59:31
Перевод: Дубляж

Режиссер: Мигель Сапочник

Бюджет: $32 000 000
Премьера в мире: 19 марта 2010



В ролях: Джуд Лоу, Форест Уитакер, Алиси Брага, Лив Шрайбер, Кэрис Ван Хаутен, Чандлер Кентербери, Джо Пинг, Лиза Лапира, Тиффани Эспенсен, Ивет Николь Браун

Описание: В недалеком будущем искусственные органы будут доступны всем и даже в кредит. Если же человек не в состоянии оплатить долг, то принимаются крайне жесткие меры. Однажды к нему в дом может вломиться Потрошитель, который способен подавить любое сопротивление и должен изъять из него искусственный орган, собственность компании Union. Реми как раз такой - и охотник, и жертва - он Потрошитель, и он же не может оплатить пересадку сердца, а посему вынужден пуститься в бега…

Качество: BDRip 720p / 60 FPS
Формат: MKV
Видео кодек: H.264
Аудио кодек: AC3
Видео: x264, 1280 x 544 (2,35:1), 3781 kbps, 60,000 fps, ( 0.090 bpp)
Аудио#1: Русский / AC3 / 48 KHz / 5.1 ch / 384 Kbps (Дубляж)


скриншот   скриншот   скриншот   скриншот   скриншот   Просьба к переливающим на другие сайты, в оформлении указывайте пожалуйста авторство группы R.G. HD-Films
x264 [info]: profile High, level 4.1
x264 [info]: frame I:2667 Avg QP:14.69 size: 88740 PSNR Mean Y:50.04 U:55.03 V:55.34 Avg:51.14 Global:50.53
x264 [info]: frame P:99026 Avg QP:17.52 size: 16965 PSNR Mean Y:47.12 U:52.85 V:52.99 Avg:48.28 Global:47.53
x264 [info]: frame B:328100 Avg QP:20.98 size: 4476 PSNR Mean Y:46.23 U:52.93 V:53.03 Avg:47.47 Global:46.41
x264 [info]: consecutive B-frames: 2.3% 2.7% 6.4% 10.1% 67.7% 10.7%


Общее
Уникальный идентификатор : 215111379189306728421593670511276962169 (0xA1D4F1D4F849596E89E4AEE71ABDB179)
Полное имя : F:\Repo.Men.(2010).BDRip.720p.(60 Fps).mkv
Формат : Matroska
Версия формата : Version 4
Размер файла : 3,48 Гбайт
Продолжительность : 1 ч. 59 м.
Общий поток : 4169 Кбит/сек
Название фильма : Потрошители / Repo Men (2010) BDRip 720p (60 Fps)
Дата кодирования : UTC 2019-06-10 13:57:47
Программа кодирования : mkvmerge v12.0.0 ('Trust / Lust') 64bit
Библиотека кодирования : libebml v1.3.4 + libmatroska v1.4.5

Видео
Идентификатор : 1
Формат : AVC
Формат/Информация : Advanced Video Codec
Профиль формата : High@L4.1
Настройки формата : CABAC / 8 Ref Frames
Параметр CABAC формата : Да
Параметр RefFrames формата : 8 кадров
Идентификатор кодека : V_MPEG4/ISO/AVC
Продолжительность : 1 ч. 59 м.
Битрейт : 3781 Кбит/сек
Ширина : 1280 пикселей
Высота : 544 пикселя
Соотношение сторон : 2,35:1
Режим частоты кадров : Постоянный
Частота кадров : 60,000 кадров/сек
Цветовое пространство : YUV
Субдискретизация насыщенности : 4:2:0
Битовая глубина : 8 бит
Тип развёртки : Прогрессивная
Бит/(Пиксели*Кадры) : 0.090
Размер потока : 3,15 Гбайт (91%)
Заголовок : slaventi-69 ( R.G. HD-Films | 60 fps )
Библиотека кодирования : x264 core 130 r2273 b3065e6
Настройки программы : cabac=1 / ref=8 / deblock=1:-3:-3 / analyse=0x3:0x113 / me=umh / subme=9 / psy=1 / psy_rd=1.00:0.00 / mixed_ref=1 / me_range=26 / chroma_me=1 / trellis=2 / 8x8dct=1 / cqm=0 / deadzone=21,11 / fast_pskip=1 / chroma_qp_offset=-2 / threads=10 / lookahead_threads=2 / sliced_threads=0 / nr=0 / decimate=1 / interlaced=0 / bluray_compat=0 / constrained_intra=0 / bframes=5 / b_pyramid=2 / b_adapt=2 / b_bias=0 / direct=2 / weightb=1 / open_gop=0 / weightp=2 / keyint=250 / keyint_min=25 / scenecut=40 / intra_refresh=0 / rc_lookahead=40 / rc=crf / mbtree=1 / crf=16.0 / qcomp=0.60 / qpmin=0 / qpmax=69 / qpstep=4 / ip_ratio=1.40 / aq=1:1.00
Язык : English
Default : Да
Forced : Нет

Аудио
Идентификатор : 2
Формат : AC-3
Формат/Информация : Audio Coding 3
Коммерческое название : Dolby Digital
Идентификатор кодека : A_AC3
Продолжительность : 1 ч. 59 м.
Вид битрейта : Постоянный
Битрейт : 384 Кбит/сек
Каналы : 6 каналов
Channel layout : L R C LFE Ls Rs
Частота : 48,0 КГц
Частота кадров : 31,250 кадров/сек (1536 SPF)
Битовая глубина : 16 бит
Метод сжатия : С потерями
Размер потока : 328 Мбайт (9%)
Заголовок : DUB
Язык : Russian
ServiceKind/String : Complete Main
Default : Да
Forced : Нет

Автор рипа: slaventi-69 pb.wtf



Скачать Потрошители через торрент http://i58.fastpic.ru/big/2015/0406/85/c71043b88a26d0d2674b72b0a9872285.png Скачать фильм Потрошители через торрент бесплантно в хорошем качестве Описание: В недалеком будущем искусственные органы будут доступны всем и даже в кредит. Если же человек не в состоянии оплатить долг, то ... 10 10 4
Торрент: Зарегистрирован [2019-06-17 14:50] · скачан: 224 раз
Статус: √ проверено
Размер: 3.48 GB
Как cкачать? Как скачать Потрошители через торрент | UTorrent

28-11-2019 20:33  

Отключить всю рекламу на сайте

    Дорогой пользователь! Огромная просьба, поблагодарите релизера, оцените раздачу и оставьте свои комментарий, если Вы скачали Потрошители через торрент бесплатно! Внесите свою лепту в развитие PiratBit!
    Комментировать посты могут только пользователи прошедшие не сложную регистрацию
    Показать сообщения:    

    Потрошители через торрент
    Скачать бесплатно Потрошители
    Потрошители скачать торрент
    Потрошители смотреть онлайн
    Cкачать фильм Потрошители бесплатно
    Потрошители скачать торрент в хорошем качестве
    Потрошители смотреть онлайн бесплатно в хорошем качестве


    Вы не можете начинать темы
    Вы не можете отвечать на сообщения
    Вы не можете редактировать свои сообщения
    Вы не можете удалять свои сообщения
    Вы не можете голосовать в опросах
    Вы не можете прикреплять файлы к сообщениям
    Вы можете скачивать файлы