Ссылка на приватное зеркало нашего сайта всего за 1$. Внимание количество ограничено!!!

2 сезон

iTunes

1 сезон

1

2 сезон

2 сезон

iTunes

1 сезон

RePack

30

Ultimate

ВАЖНО

ИГРА 18+

pack

RePack

MK11
pack

Забери бонус

RePack

jed

!!Акция!!

Alien_Rage

RePack

fifa19

RePack

Assassins Creed: Odyssey

RePack

NEED FOR SPEED™ PAYBACK

4 сезон

9 сезон

Бесстыжие 9 сезон

Все сериалы

все сериалы на PB.wtf

RePack

FAR CRY 5
  

Город на холме / City on a Hill / Сезон: 1 / Серии: 1-10 из 10 (Эдвард Бьянчи) [2019, триллер, драма, криминал, WEB-DL 1080p] MVO [AlexFilm] pb.wtf

Город на холме через торрент pb.wtf

Размер: 41.55 GB | Добавлен: 1 год 3 мес. назад | Торрент скачан:6 раз
Скачать  

17-06-2019 15:15 Город на холме Скачать торрент  

Город на холме / City on a Hill
Год выпуска: 2019
Страна: США
Жанр: триллер, драма, криминал
Продолжительность: ~ 00:60:00
Перевод: Профессиональный (многоголосый закадровый) | AlexFilm
Субтитры: English

Режиссер: Эдвард Бьянчи, Майкл Куэста, Гэвин О’Коннор

В ролях: Кевин Бейкон, Элдис Ходж, Джонатан Такер, Марк О’Брайэн, Лорен Е. Бэнкс, Аманда Клэйтон, Джилл Хеннесси, Блейк Баумгартнер, Джир Ши, Нора Мерфи и т.д.

Описание: Действие разворачивается в начале 1990-х в Бостоне, погрязшем в преступности, коррупции и расизме. Однажды в городе появляется новый чернокожий окружной прокурор из Бруклина, Декорси Уорд, который намерен во что бы то ни стало изменить существующие порядки. Герой вынужден заключить сомнительный союз с коррумпированным, но уважаемым ветераном ФБР Джеки Роудсом. Уорд надеется с его помощью выйти на след опасной банды налётчиков на инкассаторов. Вскоре их сотрудничество навсегда меняет систему уголовного правосудия в Бостоне.




Качество: WEB-DL 1080p
Формат: MKV

Видео: 1920x1080 at 23.976 fps, MPEG-4 AVC, ~9400 kbps avg
Аудио Rus: 48 kHz, AC3 Dolby Digital, 3/2 (L,C,R,l,r) + LFE ch, ~384.00 kbps
Аудио Eng: 48 kHz, AC3 Dolby Digital, 3/2 (L,C,R,l,r) + LFE ch, ~640.00 kbps
скриншот  скриншот  скриншот  скриншот  

Общее
Уникальный идентификатор : 172747083495764489865456566219513845350 (0x81F5E0CA92777CF1951C835F6F14D666)
Полное имя : C:\City_on_a_Hill_(s01)_1080p\City.on.a.Hill.2019.S01E01.The.Night.Flynn.Sent.the.Cops.on.the.Ice.1080p.AMZN.WEB-DL.DD5.1.x264-NTb.mkv
Формат : Matroska
Версия формата : Version 2
Размер файла : 4,65 Гбайт
Продолжительность : 1 ч. 2 м.
Общий поток : 10,6 Мбит/сек
Дата кодирования : UTC 2019-06-17 13:55:20
Программа кодирования : mkvmerge v4.9.1 ('Ich will') сборка от Jul 11 2011 23:53:15
Библиотека кодирования : libebml v1.2.1 + libmatroska v1.1.1

Видео
Идентификатор : 1
Формат : AVC
Формат/Информация : Advanced Video Codec
Профиль формата : High@L4
Параметр CABAC формата : Да
Параметр RefFrames формата : 4 кадра
Идентификатор кодека : V_MPEG4/ISO/AVC
Продолжительность : 1 ч. 2 м.
Вид битрейта : Постоянный
Битрейт : 9377 Кбит/сек
Номинальный битрейт : 10000 Кбит/сек
Ширина : 1920 пикселей
Высота : 1080 пикселей
Соотношение сторон : 16:9
Режим частоты кадров : Постоянный
Частота кадров : 23,976 (24000/1001) кадра/сек
Цветовое пространство : YUV
Субдискретизация насыщенности : 4:2:0
Битовая глубина : 8 бит
Тип развёртки : Прогрессивная
Бит/(Пиксели*Кадры) : 0.189
Размер потока : 4,11 Гбайт (88%)
Заголовок : Release by EniaHD
Default : Да
Forced : Нет
Цветовой диапазон : Limited
Основные цвета : BT.709
Характеристики трансфера : BT.709
Коэффициенты матрицы : BT.709

Аудио #1
Идентификатор : 2
Формат : AC-3
Формат/Информация : Audio Coding 3
Расширение режима : CM (complete main)
Параметр Endianness формата : Big
Идентификатор кодека : A_AC3
Продолжительность : 1 ч. 2 м.
Вид битрейта : Постоянный
Битрейт : 384 Кбит/сек
Каналы : 6 каналов
Расположение каналов : Front: L C R, Side: L R, LFE
Частота : 48,0 КГц
Частота кадров : 31,250 кадров/сек (1536 spf)
Метод сжатия : С потерями
Размер потока : 172 Мбайт (4%)
Заголовок : AlexFilm
Язык : Russian
Default : Да
Forced : Нет

Аудио #2
Идентификатор : 3
Формат : AC-3
Формат/Информация : Audio Coding 3
Расширение режима : CM (complete main)
Параметр Endianness формата : Big
Идентификатор кодека : A_AC3
Продолжительность : 1 ч. 2 м.
Вид битрейта : Постоянный
Битрейт : 640 Кбит/сек
Каналы : 6 каналов
Расположение каналов : Front: L C R, Side: L R, LFE
Частота : 48,0 КГц
Частота кадров : 31,250 кадров/сек (1536 spf)
Метод сжатия : С потерями
Размер потока : 287 Мбайт (6%)
Язык : English
Default : Нет
Forced : Нет

Текст
Идентификатор : 4
Формат : UTF-8
Идентификатор кодека : S_TEXT/UTF8
Идентификатор кодека/Информация : UTF-8 Plain Text
Заголовок : SDH
Язык : English
Default : Нет
Forced : Нет

Внимание! Раздача ведётся путём добавления новых серий; при каждом добавлении создаётся новый торрент. Чтобы начать докачку новой серии, пользователям необходимо сделать следующее:
(1) остановить скачивание,
(2) удалить старый торрент у себя из клиента (старые серии удалять не надо),
(3) скачать новый торрент и запустить его у себя в клиенте вместо старого, при этом указать клиенту путь в старую папку куда и должно происходить скачивание новых серий.
Ваш клиент при этом должен произвести хеширование (проверку) старой папки (если не производит сам - помогите ему сделать это), и будет докачивать только те серии которых у вас ещё нет. Старые серии при этом не удаляются, а продолжают раздаваться!
Eсли вы уже удалили старые серии, то предотвратить повторную закачку старых серий можно, отжав галочку в соответствующих местах при запуске нового торрента. По возможности, желательно не удалять старые серии как можно дольше чтобы релизёр не столько продолжал раздавать старые серии, а смог сконцентрироваться на новых.
pb.wtf



Скачать Город на холме через торрент https://d.radikal.ru/d31/1906/86/eb4fde0e94b7.png Скачать фильм Город на холме через торрент бесплантно в хорошем качестве Описание: Действие разворачивается в начале 1990-х в Бостоне, погрязшем в преступности, коррупции и расизме. Однажды в городе появляется ... 10 10 5
Торрент: Зарегистрирован [2019-08-21 14:46] · скачан: 6 раз
Статус: √ проверено
Размер: 41.55 GB
Как cкачать? Как скачать Город на холме через торрент | qTorrent

% Раздел Тема Автор DL S | L
Зарубежные сериалы [ 11.14 GB ] Город на холме / City on a Hill / Сезон: 1 / Серии: 1-10 из 10 [2019 WEB-DLRip] [MVO] killermax2013 Скачать
2 | 0
Зарубежные сериалы [ 42.21 GB ] Город на холме / City on a Hill / Сезон: 1 / Серии: 1-10 из 10 [2019 WEB-DL 1080p] MVO [Lostfilm] bober100 Скачать
1 | 0
Зарубежные сериалы [ 25.48 GB ] Город на холме / City on a Hill / Сезон: 1 / Серия: 1-10 из 10 [2019 WEB-DL 720p] 3x[MVO] killermax2013 Скачать
1 | 0
Зарубежные сериалы [ 20.17 GB ] Город на холме / City on a Hill / Сезон: 1 / Серии: 1-10 из 10 [2019 WEB-DL 720p] MVO [TVShows] bober100 Скачать
1 | 0
T Зарубежные сериалы [ 8.73 GB ] Город на холме / City on a Hill / Сезон: 1 / Серии: 1-10 из 10 [2019 WEB-DLRip] MVO [IdeaFilm] bober100 Скачать
1 | 0
Зарубежные сериалы [ 20.21 GB ] Город на холме / City on a Hill / Сезон: 1 / Серии: 1-10 из 10 [2019 WEB-DL 720p] MVO [Amedia] bober100 Скачать
1 | 0
Зарубежные сериалы [ 42.61 GB ] Город на холме / City on a Hill / Сезон: 1 / Серии: 1-10 из 10 [2019 WEB-DL 1080p] MVO [Amedia] bober100 Скачать
1 | 0

28-11-2019 20:33  

Отключить всю рекламу на сайте

    Дорогой пользователь! Огромная просьба, поблагодарите релизера, оцените раздачу и оставьте свои комментарий, если Вы скачали Город на холме через торрент бесплатно! Внесите свою лепту в развитие PiratBit!
    Комментировать посты могут только пользователи прошедшие не сложную регистрацию
    Показать сообщения:    

    Город на холме через торрент
    Скачать бесплатно Город на холме
    Город на холме скачать торрент
    Город на холме смотреть онлайн
    Cкачать фильм Город на холме бесплатно
    Город на холме скачать торрент в хорошем качестве
    Город на холме смотреть онлайн бесплатно в хорошем качестве


    Вы не можете начинать темы
    Вы не можете отвечать на сообщения
    Вы не можете редактировать свои сообщения
    Вы не можете удалять свои сообщения
    Вы не можете голосовать в опросах
    Вы не можете прикреплять файлы к сообщениям
    Вы можете скачивать файлы