Ссылка на приватное зеркало нашего сайта всего за 1$. Внимание количество ограничено!!!

2 сезон

iTunes

1 сезон

1

2 сезон

2 сезон

iTunes

1 сезон

RePack

30

Ultimate

ВАЖНО

ИГРА 18+

pack

RePack

MK11
pack

Забери бонус

RePack

jed

!!Акция!!

Alien_Rage

RePack

fifa19

RePack

Assassins Creed: Odyssey

RePack

NEED FOR SPEED™ PAYBACK

4 сезон

9 сезон

Бесстыжие 9 сезон

Все сериалы

все сериалы на PB.wtf

RePack

FAR CRY 5
  

Лондон убивает / London Kills / Сезон: 1 / Серии: 1-5 из 5 (Крэйг Пиклз, Фиона Уолтон, Шон Глинн) [2019, Криминал, детектив, WEB-DL 720p] [MVO] (HDRezka Studio) pb.wtf

Лондон убивает через торрент pb.wtf

Размер: 7.42 GB | Добавлен: 1 год 4 мес. назад | Торрент скачан:20 раз
Скачать  

17-06-2019 15:37 Лондон убивает Скачать торрент  

Лондон убивает / London Kills
«***»

Производство: Великобритания
Год выпуска: 2019
Жанр: Криминал, детектив
Продолжительность: ~ 00:45:00 - серия
Перевод: Профессиональный (многоголосый, закадровый) *HDRezka Studio*

Режиссеры: Крэйг Пиклз, Фиона Уолтон, Шон Глинн

В ролях: Хьюго Спир, Шэрон Смолл, Бэйли Патрик, Tori Allen-Martin, Дженни Жак, Ли Байфорд, Рут Хоррокс, Мэйми МакКой, Адрианна Бертола, Стив Броад и другие
Описание: В центре сюжета сериала находится элитный отряд детективов из Лондона, специализирующийся на расследовании убийств. Инспектор Дэвид Брэдфорд возвращается на службу после трехмесячного перерыва, связанного с пропажей жены, которая так и не нашлась. Среди его подчиненных сержант Вивьен Коул — специалист по психологическим портретам, Роб Брэйди — суровый детектив с большим опытом, и стажер Билли Фицджеральд — добродушная девушка, чья неопытность может подставить всю команду. В каждом эпизоде детективы расследуют новое убийство, а Брэдфорд не оставляет попыток разыскать свою супругу...

rating

скриншот  
Качество видео: WEB-DL 720p
Формат: MKV
Видео: MPEG4 AVC Video, H264, 16:9, 1280x720, 25 fps, ~4100 kbps
Аудио 1: AC-3, 48 kHz, 2 ch, 192 kbps *HDRezka Studio*
Аудио 2: E-AC-3, 48 kHz, 2 ch, 224 kbps - Eng
Субтитры: английские
General
Unique ID : 207885113767934315697662176206822856652 (0x9C653770768FC11C8F8D04B8DE8857CC)
Complete name : J:\London.Kills.S01.720p.WEB-DL.HDRezka\London.Kills.S01E01.720p.AMZN.WEB-DL.HDRezka.mkv
Format : Matroska
Format version : Version 4 / Version 2
File size : 1.48 GiB
Duration : 45 min 52 s
Overall bit rate : 4 620 kb/s
Encoded date : UTC 2019-07-22 12:46:38
Writing application : mkvmerge v6.1.0 ('Old Devil') built on Mar 2 2013 14:32:37
Writing library : libebml v1.3.0 + libmatroska v1.4.0

Video
ID : 1
Format : AVC
Format/Info : Advanced Video Codec
Format profile : High@L3.1
Format settings : CABAC / 4 Ref Frames
Format settings, CABAC : Yes
Format settings, ReFrames : 4 frames
Codec ID : V_MPEG4/ISO/AVC
Duration : 45 min 53 s
Bit rate mode : Constant
Bit rate : 4 112 kb/s
Nominal bit rate : 6 000 kb/s
Width : 1 280 pixels
Height : 720 pixels
Display aspect ratio : 16:9
Frame rate mode : Constant
Frame rate : 25.000 FPS
Color space : YUV
Chroma subsampling : 4:2:0
Bit depth : 8 bits
Scan type : Progressive
Bits/(Pixel*Frame) : 0.178
Stream size : 1.32 GiB (89%)
Language : English
Default : Yes
Forced : No
Color range : Limited
Color primaries : BT.709
Transfer characteristics : BT.709
Matrix coefficients : BT.709

Audio #1
ID : 2
Format : AC-3
Format/Info : Audio Coding 3
Codec ID : A_AC3
Duration : 45 min 52 s
Bit rate mode : Constant
Bit rate : 192 kb/s
Channel(s) : 2 channels
Channel positions : Front: L R
Sampling rate : 48.0 kHz
Frame rate : 31.250 FPS (1536 SPF)
Bit depth : 16 bits
Compression mode : Lossy
Stream size : 63.0 MiB (4%)
Language : Russian
Service kind : Complete Main
Default : Yes
Forced : No

Audio #2
ID : 3
Format : E-AC-3
Format/Info : Enhanced Audio Coding 3
Codec ID : A_EAC3
Duration : 45 min 52 s
Bit rate mode : Constant
Bit rate : 224 kb/s
Channel(s) : 2 channels
Channel positions : Front: L R
Sampling rate : 48.0 kHz
Frame rate : 187.500 FPS (256 SPF)
Compression mode : Lossy
Stream size : 73.5 MiB (5%)
Language : English
Service kind : Complete Main
Default : No
Forced : No

Text
ID : 4
Format : UTF-8
Codec ID : S_TEXT/UTF8
Codec ID/Info : UTF-8 Plain Text
Title : English [SDH]
Language : English
Default : No
Forced : No

скриншот  скриншот  скриншот  
pb.wtf



Скачать Лондон убивает через торрент https://i106.fastpic.ru/big/2019/0617/76/f933d38c7c179efc2ddc48e2b7d7e076.jpg Скачать фильм Лондон убивает через торрент бесплантно в хорошем качестве Описание: В центре сюжета сериала находится элитный отряд детективов из Лондона, специализирующийся на расследовании убийств. Инспектор ... 7.8 10 4
Торрент: Зарегистрирован [2019-07-22 15:31] · скачан: 20 раз
Статус: √ проверено
Размер: 7.42 GB
Как cкачать? Как скачать Лондон убивает через торрент | qTorrent

% Раздел Тема Автор DL S | L
Зарубежные сериалы [ 2.45 GB ] Лондон убивает / London Kills / Сезон: 2 / Серии: 1-5 из 5 [2019 WEBRip-AVC] [MVO] killermax2013 Скачать
1 | 0
Зарубежные сериалы [ 15.55 GB ] Лондон убивает / London Kills / Сезон: 1 / Серии: 1-5 из 5 [2019 WEB-DL 1080p] MVO [HDRezka Studio] bober100 Скачать
1 | 0
Зарубежные сериалы [ 3.32 GB ] Лондон убивает / London Kills / Сезон: 1 / Серии: 1-5 из 5 [2019 WEB-DLRip] MVO [HDRezka Studio] bober100 Скачать
1 | 0

28-11-2019 20:33  

Отключить всю рекламу на сайте

22-07-2019 17:01 Лондон убивает Скачать торрент  

Великобритания,детектив ,новинка !!! СПАСИБОЧКИpb.wtf



    Дорогой пользователь! Огромная просьба, поблагодарите релизера, оцените раздачу и оставьте свои комментарий, если Вы скачали Лондон убивает через торрент бесплатно! Внесите свою лепту в развитие PiratBit!
    Комментировать посты могут только пользователи прошедшие не сложную регистрацию
    Показать сообщения:    

    Лондон убивает через торрент
    Скачать бесплатно Лондон убивает
    Лондон убивает скачать торрент
    Лондон убивает смотреть онлайн
    Cкачать фильм Лондон убивает бесплатно
    Лондон убивает скачать торрент в хорошем качестве
    Лондон убивает смотреть онлайн бесплатно в хорошем качестве


    Вы не можете начинать темы
    Вы не можете отвечать на сообщения
    Вы не можете редактировать свои сообщения
    Вы не можете удалять свои сообщения
    Вы не можете голосовать в опросах
    Вы не можете прикреплять файлы к сообщениям
    Вы можете скачивать файлы