Ссылка на приватное зеркало нашего сайта всего за 1$. Внимание количество ограничено!!!

2 сезон

iTunes

1 сезон

1

iTunes

iTunes

iTunes

1 сезон

RePack

30

ИГРА 18+

pack

ВАЖНО

!!Акция!!

Alien_RageХит недели

RePack

MK11
pack

Забери бонус

RePack

jed

!!Акция!!

Alien_Rage

RePack

fifa19

RePack

Assassins Creed: Odyssey

RePack

NEED FOR SPEED™ PAYBACK

4 сезон

9 сезон

Бесстыжие 9 сезон

Все сериалы

все сериалы на PB.wtf

RePack

FAR CRY 5
  

Ангел-хранитель / Сезон: 1 / Серии: 1-16 из 16 (Максим Демченко) [2019, Мелодрама, HDTV 1080i] pb.wtf

Ангел-хранитель через торрент pb.wtf

Качают: 1 [ 0 KB/s ]
Размер: 41.15 GB | Добавлен: 1 год 1 мес. назад | Торрент скачан:8 раз
Скачать  

17-06-2019 17:00 Ангел-хранитель Скачать торрент  

Ангел-хранитель
Год выпуска: 2019
Страна: Россия
Жанр: Мелодрама
Продолжительность: ~ 00:46:00
Перевод: Не требуется
Субтитры: отсутствуют

Режиссер: Максим Демченко



В ролях: Ольга Павловец, Владимир Гостюхин, Алексей Шевченков, Анна Вартанян, Ирина Шевчук, Дмитрий Щербина, Виктор Добронравов, Ангелина Стречина, Алексей Демидов, Софья Ардова, Анатолий Кот, Александра Афанасьева-Шевчук, Юлия Галкина, Артур Иванов, Любовь Хацкевич, Юлия Кудояр, Юрий Кузнецов-Таёжный, Максим Литовченко, Иван Соловьёв, Анастасия Уколова, Алексей Фатеев

Описание: В подмосковном селе и усадьбе Ангелово живут две семьи. У профессора Ангелова три дочери: Лида, Вера и Надя, у крестьянина Тимофея Кондратьева три сына: Фёдор, Степан и Павел. 1917 год круто меняет все вокруг. В первом же «классовом» столкновении гибнут и Ангелов, и Кондратьев. Их дети проживают собственную жизнь в соответствии со своей удачей, наклонностями и возможностями: кто-то оказывается в Париже, кто-то в ГУЛАГе, а кому-то суждено стать хранителем родового гнезда. Детские влюбленности оборачиваются то единственным на всю жизнь чувством, то горькой печалью от неразделенной любви. Появляется второе и третье поколение семей Ангеловых и Кондратьевых, и разброс человеческих судеб становится еще шире, превращаясь в захватывающую семейную сагу. Рядом с людьми постоянно присутствуют два оберега: Ангел-хранитель и Волк-оборотень, которые время от времени остерегают или направляют героев на те или иные поступки...

Качество: HDTV 1080i
Формат: TS

Видео: MPEG-TS AVC, ~ 7000 Кбит/с, 1920x1080, 25 кадр/с
Аудио#1: Русский (AC3, 6 ch, 384 Кбит/с)
Аудио#2: Русский (MP2, 2 ch, 192 Кбит/с)
скриншот  скриншот  скриншот  скриншот  

Общее
Идентификатор : 1 (0x1)
Полное имя : D:ЗаписьAngel-hranitel.HDTV(1080i).GeneralFilm1.Angel-hranitel.HDTV(1080i).GeneralFilm.ts
Формат : MPEG-TS
Размер файла : 2,84 Гбайт
Продолжительность : 52 м. 10 с.
Режим общего битрейта : Переменный
Общий поток : 7794 Кбит/сек

Видео
Идентификатор : 1904 (0x770)
Идентификатор меню : 80 (0x50)
Формат : AVC
Формат/Информация : Advanced Video Codec
Профиль формата : High@L4
Параметр CABAC формата : Да
Параметр ReFrames формата : 3 кадра
Идентификатор кодека : 27
Продолжительность : 52 м. 10 с.
Битрейт : 6827 Кбит/сек
Ширина : 1920 пикселей
Высота : 1080 пикселей
Соотношение сторон : 16:9
Частота кадров : 25,000 кадров/сек
Стандарт вещания : Component
Цветовое пространство : YUV
Субдискретизация насыщенности : 4:2:0
Битовая глубина : 8 бит
Тип развёртки : Чересстрочная
Метод сохранения типа развёртки : Раздельные поля
Порядок развёртки : Верхнее поле первое
Бит/(Пиксели*Кадры) : 0.132
Размер потока : 2,49 Гбайт (88%)
Цветовой диапазон : Limited
Основные цвета : BT.709
Характеристики трансфера : BT.709
Коэффициенты матрицы : BT.709

Аудио #1
Идентификатор : 2904 (0xB58)
Идентификатор меню : 80 (0x50)
Формат : AC-3
Формат/Информация : Audio Coding 3
Расширение режима : CM (complete main)
Параметр Endianness формата : Big
Идентификатор кодека : 6
Продолжительность : 52 м. 10 с.
Вид битрейта : Постоянный
Битрейт : 384 Кбит/сек
Каналы : 6 каналов
Расположение каналов : Front: L C R, Side: L R, LFE
Частота : 48,0 КГц
Частота кадров : 31,250 кадров/сек (1536 spf)
Битовая глубина : 16 бит
Метод сжатия : С потерями
Задержка видео : -120 мс.
Размер потока : 143 Мбайт (5%)
Язык : Russian

Аудио #2
Идентификатор : 2905 (0xB59)
Идентификатор меню : 80 (0x50)
Формат : MPEG Audio
Версия формата : Version 1
Профиль формата : Layer 2
Идентификатор кодека : 3
Продолжительность : 52 м. 10 с.
Вид битрейта : Постоянный
Битрейт : 192 Кбит/сек
Каналы : 2 канала
Частота : 48,0 КГц
Метод сжатия : С потерями
Задержка видео : -120 мс.
Размер потока : 71,6 Мбайт (2%)
Язык : Russian

Внимание! Раздача ведётся путём добавления новых серий; при каждом добавлении создаётся новый торрент. Чтобы начать докачку новой серии,пользователям необходимо сделать следующее:
(1) остановить скачивание,
(2) удалить старый торрент у себя из клиента (старые серии удалять не надо),
(3) скачать новый торрент и запустить его у себя в клиенте вместо старого, при этом указать клиенту путь в старую папку куда и должнопроисходить скачивание новых серий.

Ваш клиент при этом должен произвести хеширование (проверку) старой папки (если не производит сам - помогите ему сделать это), и будет докачивать только те серии
которых у вас ещё нет. Старые серии при этом не удаляются, а продолжают раздаваться!

Eсли вы уже удалили старые серии, то предотвратить повторную закачку старых серий можно, отжав галочку в соответствующих местах при запуске нового торрента.

По возможности, желательно не удалять старые серии как можно дольше чтобы релизёр не столько продолжал раздавать старые серии, а смог сконцентрироваться на новых.
pb.wtf



Скачать Ангел-хранитель через торрент https://a.radikal.ru/a09/1906/9a/a9a6cc17fa85.jpg Скачать фильм Ангел-хранитель через торрент бесплантно в хорошем качестве Описание: В подмосковном селе и усадьбе Ангелово живут две семьи. У профессора Ангелова три дочери: Лида, Вера и Надя, у крестьянина ... 10 10 3
Info! Золотая раздача, скачанное не засчитывается.
Торрент: Зарегистрирован [2019-08-23 19:02] · скачан: 8 раз
Статус: √ проверено
Размер: 41.15 GB
Как cкачать? Как скачать Ангел-хранитель через торрент | qTorrent

% Раздел Тема Автор DL S | L
Наши сериалы [ 12.46 GB ] Ангел-хранитель / Сезон: 1 / Серии: 1-16 из 16 [2019 Мело HDTVRip-AVC] bober100 Скачать
1 | 0
Наши сериалы [ 20.97 GB ] Ангел-хранитель / Сезон: 1 / Серии: 1-16 из 16 [2019 Мело HDTVRip 720p] bober100 Скачать
2 | 0
Наши сериалы [ 10.1 GB ] Ангел-хранитель / Сезон: 1 / Серии: 1-16 из 16 [2019 Мело HDTVRip] bober100 Скачать
1 | 0
Наши сериалы [ 9.37 GB ] Ангел-хранитель / Сезон: 1 / Серии: 1-16 из 16 [2019 Мело SATRip] bober100 Скачать
1 | 0

28-11-2019 20:33  

Отключить всю рекламу на сайте

    Дорогой пользователь! Огромная просьба, поблагодарите релизера, оцените раздачу и оставьте свои комментарий, если Вы скачали Ангел-хранитель через торрент бесплатно! Внесите свою лепту в развитие PiratBit!
    Комментировать посты могут только пользователи прошедшие не сложную регистрацию
    Показать сообщения:    

    Ангел-хранитель через торрент
    Скачать бесплатно Ангел-хранитель
    Ангел-хранитель скачать торрент
    Ангел-хранитель смотреть онлайн
    Cкачать фильм Ангел-хранитель бесплатно
    Ангел-хранитель скачать торрент в хорошем качестве
    Ангел-хранитель смотреть онлайн бесплатно в хорошем качестве


    Вы не можете начинать темы
    Вы не можете отвечать на сообщения
    Вы не можете редактировать свои сообщения
    Вы не можете удалять свои сообщения
    Вы не можете голосовать в опросах
    Вы не можете прикреплять файлы к сообщениям
    Вы можете скачивать файлы